<?xml version="1.0" standalone="no"?>
<!DOCTYPE svg PUBLIC "-//W3C//DTD SVG 1.1//EN" "http://www.w3.org/Graphics/SVG/1.1/DTD/svg11.dtd" >
<svg xmlns="http://www.w3.org/2000/svg">
<metadata></metadata>
<defs>
<font id="latin_modern_roman_slante10Rg" horiz-adv-x="500" >
<font-face units-per-em="1000" ascent="806" descent="-194" />
<missing-glyph horiz-adv-x="333" />
<glyph unicode="&#xfb01;" horiz-adv-x="556" d="M28 0l5 31q53 0 66.5 6.5t19.5 38.5l54 324h-79l5 31h79l19 114q8 51 49 89t90.5 54.5t99.5 16.5q56 0 87.5 -28.5t24.5 -72.5q-4 -21 -19.5 -33.5t-34.5 -12.5q-17 0 -29 11.5t-8 34.5q2 17 14.5 31t39.5 15q-23 33 -80 33q-55 0 -107.5 -35.5t-63.5 -103.5l-19 -113 h118q15 0 18 1t18 2l128 9l-61 -367q-6 -32 5.5 -38.5t64.5 -6.5l-5 -31l-110 3l-112 -3l5 31q53 0 66.5 6.5t19.5 38.5l45 270q5 32 -3 43t-41 11h-158l-54 -324q-6 -32 5.5 -38.5t64.5 -6.5l-5 -31l-110 3z" />
<glyph unicode="&#xfb02;" horiz-adv-x="556" d="M28 0l5 31q53 0 66.5 6.5t19.5 38.5l54 324h-79l5 31h79l19 114q12 74 84 117t157 43q52 0 81 -14q6 -3 9 -3l37 6l-103 -618q-6 -32 5.5 -38.5t64.5 -6.5l-5 -31l-110 3l-112 -3l5 31q53 0 66.5 6.5t19.5 38.5l54 324h-211l-54 -324q-6 -32 5.5 -38.5t64.5 -6.5l-5 -31 l-110 3zM241 431h214l27 164q-23 9 -18 39q4 28 31 40q-26 9 -62 9q-61 0 -111.5 -36.5t-61.5 -102.5z" />
<glyph unicode="&#xfb03;" horiz-adv-x="833" d="M28 0l5 31q53 0 66.5 6.5t19.5 38.5l54 324h-79l5 31h79l19 114q8 51 48.5 89t90 54.5t99.5 16.5q78 0 105 -55q77 55 173 55q56 0 87.5 -28.5t24.5 -72.5q-2 -11 -7.5 -20t-13 -14.5t-16 -8.5t-17.5 -3q-17 0 -29 11.5t-8 34.5q2 17 14.5 31t39.5 15q-23 33 -80 33 q-34 0 -68.5 -13.5t-65 -46.5t-37.5 -79l-19 -113h118q16 0 18 1q137 10 146 11l-61 -367q-6 -32 5.5 -38.5t64.5 -6.5l-5 -31l-110 3l-112 -3l5 31q53 0 66.5 6.5t19.5 38.5l45 270q5 32 -3 43t-41 11h-158l-54 -324q-6 -32 5.5 -38.5t64.5 -6.5l-5 -31l-110 3l-112 -3 l5 31q53 0 66.5 6.5t19.5 38.5l54 324h-211l-54 -324q-6 -32 5.5 -38.5t64.5 -6.5l-5 -31l-110 3zM241 431h214l22 130q-29 8 -23 43q7 44 55 46q-26 33 -80 33q-33 0 -67 -13t-64.5 -46t-37.5 -80z" />
<glyph unicode="&#xfb04;" horiz-adv-x="833" d="M28 0l5 31q53 0 66.5 6.5t19.5 38.5l54 324h-79l5 31h79l19 114q13 75 85 117.5t154 42.5q91 0 109 -52q73 52 170 52q52 0 81 -14q6 -3 9 -3l37 6l-103 -618q-6 -32 5.5 -38.5t64.5 -6.5l-5 -31l-110 3l-112 -3l5 31q53 0 66.5 6.5t19.5 38.5l54 324h-211l-54 -324 q-6 -32 5.5 -38.5t64.5 -6.5l-5 -31l-110 3l-112 -3l5 31q53 0 66.5 6.5t19.5 38.5l54 324h-211l-54 -324q-6 -32 5.5 -38.5t64.5 -6.5l-5 -31l-110 3zM241 431h214l19 114q5 25 9 35q-26 10 -22 40q7 37 44 44q-29 19 -74 19q-57 0 -108.5 -36t-62.5 -103zM518 431h214 l27 164q-23 9 -18 39q4 28 31 40q-26 9 -62 9q-61 0 -111.5 -36.5t-61.5 -102.5z" />
<glyph horiz-adv-x="1000" />
<glyph horiz-adv-x="1000" />
<glyph unicode="&#xd;" horiz-adv-x="1000" />
<glyph unicode=" "  horiz-adv-x="333" />
<glyph unicode="&#x09;" horiz-adv-x="333" />
<glyph unicode="&#xa0;" horiz-adv-x="333" />
<glyph unicode="!" horiz-adv-x="278" d="M95 53q4 22 22 37.5t40 15.5t35 -15.5t9 -37.5t-22 -37.5t-40 -15.5t-35 15.5t-9 37.5zM160 210l37 455q4 23 22 37t39 14t35 -14t10 -37l-115 -456q-5 -22 -18 -22q-8 0 -9.5 4.5t-0.5 18.5z" />
<glyph unicode="&#x22;" horiz-adv-x="374" d="M197 423l19 247q1 15 13.5 25t27.5 10t24 -10t5 -25l-63 -247h-26zM293 423l19 247q1 15 13.5 25t27.5 10t24 -10t5 -25l-63 -247h-26z" />
<glyph unicode="#" horiz-adv-x="833" d="M82 153q3 20 37 20h171l66 154h-211q-10 0 -16 0.5t-11 5.5t-4 14q3 20 36 20h224l132 303q11 24 26 24q8 0 13 -6t3 -14q0 -11 -7 -18l-126 -289h188l132 303q11 24 26 24q8 0 13 -6t3 -14q0 -11 -7 -18l-126 -289h160q10 0 15.5 -0.5t10.5 -5.5t4 -14q-3 -20 -37 -20 h-171l-66 -154h211q10 0 16 -0.5t11 -5.5t4 -14q-4 -20 -37 -20h-224l-131 -303q-11 -24 -26 -24q-8 0 -13 6t-4 14q2 8 7 18l126 289h-188l-131 -303q-11 -24 -26 -24q-8 0 -13 6t-4 14q2 8 7 18l126 289h-160q-10 0 -15.5 0.5t-10.5 5.5t-3 14zM331 173h188l66 154h-188z " />
<glyph unicode="$" d="M86 178q4 22 17 34.5t21.5 14.5t15.5 2q19 0 30.5 -12.5t8.5 -33.5q-4 -20 -19 -33t-35 -13q-8 0 -16 2q2 -50 34 -82t95 -36l49 298q-31 8 -45.5 13t-33.5 16.5t-34 30.5q-46 52 -32 134q12 71 70 127.5t139 63.5l8 46h31l-7 -45q82 -4 121 -53t27 -123 q-4 -22 -18 -34.5t-22 -14t-14 -1.5q-18 0 -30 12t-8 34q3 21 18 33.5t35 12.5q8 0 16 -2q-5 45 -37.5 73t-93.5 31l-45 -270q30 -8 44.5 -13t34 -18t34.5 -34q7 -8 15 -22.5t15 -49t1 -71.5q-14 -79 -74 -138.5t-139 -66.5l-7 -46h-31l7 45q-87 6 -122.5 60.5t-23.5 128.5z M198 543q-2 -9 -2.5 -19t3.5 -28t14 -33t33 -30t57 -22l43 262q-58 -6 -99 -44t-49 -86zM269 21q58 7 100 49t51 95q2 11 2.5 22.5t-3.5 32t-14 37t-32.5 32t-55.5 22.5z" />
<glyph unicode="%" horiz-adv-x="833" d="M133 -36q1 7 12 20l561 669l-1 1q-61 -35 -139 -35q-77 0 -144 42q14 -56 2 -113q-14 -84 -61 -142.5t-102 -58.5q-59 0 -93.5 57t-19.5 145q14 86 67.5 143.5t112.5 57.5q37 0 67 -32q68 -77 174 -77q119 0 206 95q14 14 23 14q8 0 13 -6t4 -14q-1 -5 -11 -18l-632 -753 q-14 -15 -22 -15t-13 6t-4 14zM209 548q-10 -49 -6.5 -82t9 -52.5t18 -29.5t20.5 -12.5t16 -2.5q41 0 81 51t53 129q12 76 -11 127.5t-64 51.5q-11 0 -23.5 -5.5t-31 -21.5t-35 -55.5t-26.5 -97.5zM523 146q15 86 68.5 143.5t112.5 57.5q54 0 82 -58t14 -144 q-14 -84 -61 -142.5t-102 -58.5q-59 0 -93.5 57t-20.5 145zM585 145q-10 -49 -7 -82t8.5 -52.5t18 -29.5t20.5 -12.5t16 -2.5q41 0 81 51t53 129q13 76 -10 127.5t-64 51.5q-11 0 -23.5 -5.5t-31 -21.5t-35 -55.5t-26.5 -97.5z" />
<glyph unicode="&#x26;" horiz-adv-x="778" d="M63 128q6 37 26 61.5t67 65.5l107 97q-23 104 -7 203q12 74 61 117.5t101 43.5q33 0 50.5 -23t17.5 -52t-2 -54q-5 -31 -33.5 -71t-53.5 -64.5t-69 -66.5q16 -73 58.5 -155.5t63.5 -111.5q77 78 179 218q18 25 3.5 44.5t-57.5 19.5l5 31q40 -3 121 -3l98 3l-5 -31 q-43 0 -73 -14t-46 -31t-47 -57q-107 -143 -166 -200q61 -89 124 -89q40 0 79.5 29t50.5 83h25q-12 -63 -59.5 -103t-105.5 -40q-88 0 -163 76q-97 -76 -194 -76q-75 0 -120.5 43t-35.5 107zM152 160q-5 -20 -2.5 -46t8.5 -49.5t26 -39.5t49 -16q82 0 164 64q-33 40 -72 117 q-35 67 -57 139q-56 -46 -81.5 -79.5t-34.5 -89.5zM322 578q-13 -79 2 -169q124 111 135 179q1 4 1.5 11.5t0.5 25.5t-3 32t-13.5 25.5t-27.5 11.5q-30 0 -57.5 -29t-37.5 -87z" />
<glyph unicode="'" horiz-adv-x="278" d="M197 423l19 247q1 15 13.5 25t27.5 10t24 -10t5 -25l-63 -247h-26z" />
<glyph unicode="(" horiz-adv-x="389" d="M141 250q28 171 114 305q36 57 82 105t74 69t35 21q11 0 8 -10q0 -5 -15 -17q-188 -164 -240 -473t79 -468q13 -16 13 -22q-1 -10 -12 -10q-7 0 -27.5 20t-49.5 66t-47 102q-43 136 -14 312z" />
<glyph unicode=")" horiz-adv-x="389" d="M17 -240q0 4 16 17q187 163 240 473q52 310 -77 467q-16 18 -16 23q2 10 12 10q7 0 27.5 -20t50 -66t47.5 -102q43 -136 14 -312q-28 -168 -114 -305q-36 -57 -82 -105.5t-74.5 -69t-35.5 -20.5q-10 0 -8 10z" />
<glyph unicode="*" d="M139 441q3 17 27 28l150 66l-130 66q-19 10 -16 27q2 10 11 19t20 9q8 0 21 -11l109 -90l13 170q2 10 10.5 17.5t20.5 7.5q10 0 16.5 -7t5.5 -18l-43 -170l124 82q29 19 38 19q11 0 18 -9t5 -19q-3 -17 -28 -28l-150 -66l130 -66q19 -9 17 -27q-2 -11 -11.5 -19.5 t-20.5 -8.5q-7 0 -15 6l-114 95l-14 -170q-2 -10 -10.5 -17.5t-20.5 -7.5q-10 0 -16.5 7t-5.5 18l44 170l-157 -101q-15 0 -22 7t-7 14z" />
<glyph unicode="+" horiz-adv-x="778" d="M98 250q3 20 36 20h280l47 280q5 33 25 33t15 -33l-47 -280h279q10 0 15.5 -0.5t10.5 -5.5t4 -14q-4 -20 -37 -20h-279l-46 -280q-2 -11 -3.5 -15.5t-7.5 -11t-15 -6.5q-21 0 -14 33l46 280h-280q-10 0 -15.5 0.5t-10.5 5.5t-3 14z" />
<glyph unicode="," horiz-adv-x="278" d="M72 -182q0 4 8 11q85 77 102 187q-21 -16 -43 -16q-25 0 -36 15.5t-8 37.5q3 21 20 37t42 16q30 0 42 -28.5t4 -76.5q-9 -52 -37.5 -100t-53 -71t-32.5 -23q-11 0 -8 11z" />
<glyph unicode="-" horiz-adv-x="333" d="M42 187l10 58h265l-10 -58h-265z" />
<glyph unicode="." horiz-adv-x="278" d="M95 53q4 22 22 37.5t40 15.5t35 -15.5t9 -37.5t-22 -37.5t-40 -15.5t-35 15.5t-9 37.5z" />
<glyph unicode="/" d="M18 -230q0 5 8 18l498 942q8 20 24 20q8 0 13 -6t4 -14q-1 -5 -8 -18l-498 -942q-10 -20 -25 -20q-8 0 -13 6t-3 14z" />
<glyph unicode="0" d="M92 320q26 148 75 227q73 119 194 119q19 0 38 -4.5t41.5 -15.5t41.5 -34.5t30 -57.5q27 -86 1 -234q-24 -146 -74 -226q-73 -116 -194 -116q-45 0 -86.5 23t-61.5 78q-30 82 -5 241zM153 121q1 -65 30 -93t66 -28q40 0 78.5 30t59.5 95q22 65 45 207q24 138 23 195 q-2 65 -33 91t-66 26q-13 0 -27.5 -4t-36.5 -15t-42 -39t-34 -70q-16 -52 -39 -184q-25 -163 -24 -211z" />
<glyph unicode="1" d="M95 0l5 31h32q63 0 79.5 9t21.5 39l87 518q-57 -26 -136 -26l5 31q120 0 193 64q17 0 19.5 -4t-0.5 -22l-94 -561q-5 -30 8 -39t77 -9h32l-5 -31q-34 3 -161 3t-163 -3z" />
<glyph unicode="2" d="M50 0q3 19 5.5 24t11.5 13l228 214q124 118 142 221q11 67 -16 115t-91 48q-44 0 -85.5 -27t-66.5 -75q3 1 13 1q25 0 36.5 -15.5t7.5 -36.5q-4 -27 -23 -40t-37 -13q-3 0 -7 0.5t-12.5 3.5t-14 8t-9.5 16.5t-1 27.5q12 70 74 125.5t143 55.5q92 0 143 -54.5t37 -139.5 q-12 -70 -63 -123t-202 -169l-123 -103h180q88 0 96 8q12 14 37 89h25l-57 -174h-371z" />
<glyph unicode="3" d="M65 135q5 30 24 44t41 14q23 0 37 -15t10 -41q-4 -28 -26.5 -43.5t-48.5 -11.5q17 -40 58 -58t82 -18q19 0 38 7t40 24t38 51.5t25 82.5q13 77 -10 121.5t-82 44.5h-44q-15 0 -19 1.5t-3 9.5q2 10 17 12q13 0 40 3q58 2 97 52q36 46 47 114q10 61 -14.5 86.5t-62.5 25.5 q-35 0 -76 -14.5t-67 -47.5q14 0 24 -1.5t21.5 -13.5t7.5 -35q-4 -22 -20 -36.5t-39 -14.5q-22 0 -34.5 14t-8.5 38q10 57 67.5 96.5t132.5 39.5q74 0 122.5 -39t38.5 -99q-10 -59 -57 -107.5t-112 -68.5q73 -15 110 -66.5t27 -114.5q-13 -78 -84.5 -135.5t-161.5 -57.5 q-83 0 -135 45t-40 112z" />
<glyph unicode="4" d="M56 165l5 31l385 469q10 12 22 12q11 0 13 -5.5t-1 -20.5l-76 -455h100l-5 -31h-100l-15 -87q-5 -29 5.5 -38t62.5 -9h21l-5 -31q-40 3 -135 3q-94 0 -136 -3l5 31h21q52 0 65.5 9t18.5 38l15 87h-266zM89 196h244l62 373z" />
<glyph unicode="5" d="M77 161q5 30 23 41.5t35 11.5q23 0 34 -14.5t8 -34.5q-3 -19 -19.5 -34t-39.5 -15q-10 0 -16 2q6 -47 40.5 -79.5t87.5 -32.5q66 0 118 65q31 41 47 137q14 86 3 126q-18 64 -75 64q-83 0 -140 -70q-7 -9 -15 -9q-10 0 -11 6.5t2 19.5l49 296q4 24 14 24q4 0 11 -3 q59 -28 129 -28q71 0 149 32q10 0 8 -11q-1 -4 -10.5 -15.5t-29 -26.5t-43.5 -29t-58 -23.5t-69 -9.5q-42 0 -83 13l-32 -195q60 51 135 51q80 0 124 -64.5t30 -154.5q-16 -94 -92 -158.5t-164 -64.5q-80 0 -120.5 56.5t-29.5 126.5z" />
<glyph unicode="6" d="M95 316q26 157 122 253.5t199 96.5q60 0 88.5 -30.5t20.5 -77.5q-4 -26 -20.5 -37t-33.5 -11q-18 0 -30 12t-8 34q7 45 62 45q-19 40 -81 40q-19 0 -39 -5.5t-49 -24t-53.5 -48t-47 -84.5t-34.5 -127l-4 -24q58 99 141 99q84 0 131.5 -64t31.5 -159q-16 -97 -87.5 -161.5 t-156.5 -64.5q-38 0 -69.5 15.5t-58.5 53.5t-32.5 103.5t8.5 165.5zM166 81q2 -8 6.5 -18.5t13.5 -24.5t26.5 -23t39.5 -9q67 0 110 65q23 35 39 134q17 101 5 137q-21 62 -83 62t-100.5 -54.5t-50.5 -123.5q-17 -100 -6 -145z" />
<glyph unicode="7" d="M134 470l68 206h25q1 -12 5 -17.5t31.5 -10t85.5 -4.5h243q-3 -23 -14 -35l-167 -190q-52 -60 -91 -171q-23 -74 -38 -164l-8 -51q-11 -55 -56 -55q-47 0 -36 55q32 191 185 376l139 158h-207q-91 0 -99 -6q-10 -8 -41 -91h-25z" />
<glyph unicode="8" d="M67 151q19 112 175 184q-56 43 -64 54q-36 50 -26 110q12 70 73 118.5t136 48.5q72 0 119.5 -41.5t35.5 -107.5q-16 -93 -147 -155q46 -32 61.5 -44t26.5 -27q40 -54 28 -123q-13 -80 -84 -135t-156 -55q-83 0 -136.5 48t-41.5 125zM117 151q-10 -62 29.5 -103.5 t104.5 -41.5q63 0 116 36t62 90q5 28 -6 52t-21.5 33.5t-29.5 24.5l-110 78q-127 -65 -145 -169zM203 538q-9 -48 36 -81l111 -80q109 58 122 140q9 53 -25.5 88.5t-90.5 35.5q-55 0 -100.5 -29t-52.5 -74z" />
<glyph unicode="9" d="M81 86q5 26 21.5 37t32.5 11q18 0 30.5 -12t8.5 -34q-8 -46 -60 -46q22 -36 92 -36q25 0 52 11.5t58.5 39.5t58 87t40.5 142l5 32q-57 -100 -142 -100q-84 0 -131 64.5t-31 158.5q9 53 30 89.5t61 72.5q70 63 157 63q29 0 54 -9t49.5 -32t37.5 -61t17.5 -96.5 t-10.5 -138.5q-26 -155 -117.5 -253t-192.5 -98q-64 0 -96.5 29t-24.5 79zM201 304q20 -63 82 -63q61 0 100.5 54.5t51.5 125.5q17 95 8 141q-18 79 -83 79q-66 0 -111 -63q-27 -37 -44 -138q-16 -99 -4 -136z" />
<glyph unicode=":" horiz-adv-x="278" d="M95 53q4 22 22 37.5t40 15.5t35 -15.5t9 -37.5t-22 -37.5t-40 -15.5t-35 15.5t-9 37.5zM149 378q4 22 22 37.5t40 15.5t35 -15.5t9 -37.5t-22 -37.5t-40 -15.5t-35 15.5t-9 37.5z" />
<glyph unicode=";" horiz-adv-x="278" d="M72 -182q0 5 9 13q75 73 94 180q-14 -11 -36 -11q-25 0 -36 15.5t-8 37.5q3 21 20 37t42 16q53 0 39 -103q-9 -52 -36 -100.5t-50 -72t-30 -23.5q-11 0 -8 11zM149 378q4 22 22 37.5t40 15.5t35 -15.5t9 -37.5t-22 -37.5t-40 -15.5t-35 15.5t-9 37.5z" />
<glyph unicode="&#x3c;" horiz-adv-x="778" d="M125 250q2 13 22 22l598 261q14 7 19 7q8 0 13 -6t4 -14q-2 -12 -23 -22l-566 -248l483 -248q17 -9 16 -22q-4 -20 -24 -20q-5 0 -17 7l-510 261q-17 9 -15 22z" />
<glyph unicode="=" horiz-adv-x="778" d="M82 153q3 20 37 20h597q10 0 16 -0.5t11 -5.5t4 -14q-4 -20 -37 -20h-599q-10 0 -15.5 0.5t-10.5 5.5t-3 14zM114 347q3 20 36 20h599q10 0 15.5 -0.5t10.5 -5.5t4 -14q-3 -20 -37 -20h-597q-10 0 -16 0.5t-11 5.5t-4 14z" />
<glyph unicode="&#x3e;" horiz-adv-x="778" d="M80 -20q1 12 22 22l567 248l-484 248q-18 10 -15 22q4 20 23 20q5 0 17 -7l510 -261q18 -8 16 -22q-2 -13 -23 -22l-598 -261q-14 -7 -19 -7q-8 0 -13 6t-3 14z" />
<glyph unicode="?" horiz-adv-x="472" d="M151 572q9 52 62.5 92.5t130.5 40.5q101 0 138 -41t28 -94q-10 -62 -64 -98q-148 -96 -169 -223l-6 -35q-2 -11 -3.5 -15.5t-5 -8t-9.5 -3.5q-8 0 -9.5 5.5t1.5 18.5l8 45q9 53 40 114t85 111q13 11 20.5 19.5t16 28t13.5 47.5q3 16 4 26.5t-2 27.5t-12 27t-29.5 18 t-51.5 8q-92 0 -142 -68q9 0 15 -1t16.5 -4.5t15 -13.5t1.5 -26q-3 -20 -18 -33t-36 -13q-19 0 -30.5 12t-7.5 36zM178 53q4 22 22 37.5t40 15.5t35 -15.5t9 -37.5t-22 -37.5t-40 -15.5t-35 15.5t-9 37.5z" />
<glyph unicode="@" horiz-adv-x="778" d="M114 347q25 149 140 253.5t253 104.5q61 0 115.5 -25t94.5 -70t57 -116t3 -156q-7 -45 -16.5 -79t-25 -65.5t-39.5 -48.5t-56 -17q-33 0 -60 17.5t-28 53.5q-63 -71 -144 -71q-79 0 -127.5 63t-33.5 156t85 156t149 63q81 0 125 -77q5 -8 21 -8h17q17 0 20 -3.5t0 -20.5 l-40 -241q-9 -66 24 -66q24 0 41.5 14.5t29.5 43t18.5 56.5t13.5 68q15 86 -2 155.5t-56 111t-88.5 63t-102.5 21.5q-125 0 -232 -97.5t-131 -238.5q-23 -137 49.5 -236.5t206.5 -99.5q136 0 283 64q5 3 23 3h9h10.5t6.5 -1t4 -3t0 -6q-1 -10 -60.5 -29.5t-94.5 -27.5 q-98 -22 -184 -22q-146 0 -224 106.5t-54 251.5zM316 347q-14 -83 15.5 -140t83.5 -57q67 0 127 69q12 15 15.5 22t5.5 21l28 170q4 22 -6 40q-35 72 -104 72q-55 0 -103.5 -57t-61.5 -140z" />
<glyph unicode="A" horiz-adv-x="750" d="M32 0l5 31q90 2 123 67l307 598q6 12 11 16t16 4t14 -4t6 -16l112 -625q4 -25 18.5 -32.5t59.5 -7.5h18l-5 -31l-130 3q-108 0 -145 -3l5 31q83 0 88 30v14l-28 153h-247l-68 -131q-4 -8 -4 -15q-4 -21 13 -36t53 -15l-5 -31l-114 3zM276 259h225l-59 325z" />
<glyph unicode="B" horiz-adv-x="708" d="M36 0l5 31h24q54 0 68 9t19 38l88 527q5 29 -6 38t-65 9h-24l5 31h366q95 0 150 -51t44 -118q-10 -55 -63.5 -99t-128.5 -58q81 -9 128 -58.5t36 -115.5q-12 -73 -84.5 -128t-169.5 -55h-392zM234 71q-5 -26 1.5 -33t40.5 -7h125q72 0 121.5 47t59.5 106t-18.5 109.5 t-96.5 50.5h-188zM283 366h145q77 0 126 46.5t59 101.5q5 30 -2 59.5t-34.5 54t-72.5 24.5h-124q-34 0 -42.5 -7t-13.5 -33z" />
<glyph unicode="C" horiz-adv-x="722" d="M113 342q25 151 146 257t263 106q44 0 80.5 -16t51.5 -30t37 -40l63 74q10 12 18 12q7 0 8 -4.5t0 -15.5q-1 -2 -1 -4l-40 -237q-2 -16 -5 -20t-15 -4q-10 0 -11.5 2.5t-1.5 14.5q3 108 -46.5 172.5t-132.5 64.5q-24 0 -51.5 -5.5t-69.5 -26t-77 -54.5t-67 -98t-46 -149 q-13 -64 -8 -112.5t15.5 -83.5t32 -59.5t41.5 -39.5t45.5 -23t42.5 -11t33 -3q86 0 162 61t99 164q8 15 15 16q9 0 10.5 -5t-0.5 -12q-16 -95 -102.5 -175t-201.5 -80q-141 0 -226.5 105.5t-60.5 258.5z" />
<glyph unicode="D" horiz-adv-x="764" d="M35 0l5 31h24q54 0 68 9t19 38l88 527q5 29 -6 38t-65 9h-24l5 31h366q128 0 200 -102t48 -245q-23 -140 -129 -238t-233 -98h-366zM236 71q-5 -26 1.5 -33t40.5 -7h101q66 0 115.5 27t76.5 58q68 74 92 220q25 151 -15 223q-51 93 -166 93h-100q-34 0 -42.5 -7 t-13.5 -33z" />
<glyph unicode="E" horiz-adv-x="681" d="M33 0l5 31h24q54 0 68 9t19 38l87 524q5 29 -6 38t-65 9h-24l5 31h563l-9 -225h-25q6 111 -24.5 152.5t-139.5 41.5h-129q-34 0 -42.5 -7t-12.5 -33l-40 -240h90q69 0 92.5 24t34.5 93h25l-44 -265h-25q11 68 -4.5 92.5t-84.5 24.5h-90l-44 -267q-5 -26 1.5 -33t40.5 -7 h133q51 0 88 9.5t62 25t45 47t32.5 62t30.5 83.5h25l-85 -258h-577z" />
<glyph unicode="F" horiz-adv-x="653" d="M33 0l5 31h24q54 0 68 9t19 38l87 524q5 29 -6 38t-65 9h-24l5 31h549l-9 -225h-25q6 111 -23 152.5t-136 41.5h-120q-34 0 -42.5 -7t-12.5 -33l-43 -253h86q68 0 91.5 24.5t34.5 92.5h25l-44 -265h-25q11 68 -4 92.5t-83 24.5h-86l-41 -246q-4 -17 -1.5 -28t22.5 -15.5 t66 -4.5h33l-5 -31q-35 3 -167 3q-117 0 -153 -3z" />
<glyph unicode="G" horiz-adv-x="785" d="M113 342q25 152 146.5 257.5t262.5 105.5q45 0 82.5 -16.5t53 -31.5t34.5 -38l63 74q10 12 18 12q7 0 8 -4.5t0 -15.5q-1 -2 -1 -4l-40 -237q-2 -16 -5 -20t-15 -4q-10 0 -11.5 2.5t-1.5 14.5q3 108 -47 172.5t-132 64.5q-24 0 -51.5 -5.5t-69.5 -26t-77.5 -54 t-67.5 -97.5t-46 -149q-7 -56 -8 -100t10 -78t24.5 -58.5t34.5 -42t39.5 -28t40.5 -16.5t37.5 -8t29.5 -2q17 0 37.5 3.5t52 14.5t55 37.5t30.5 65.5l10 64q6 30 -7.5 39t-77.5 9h-32l6 31q35 -3 160 -3l123 3l-6 -31q-48 0 -59.5 -7t-16.5 -37l-29 -174q-3 -23 -13 -23 q-8 0 -27 22.5t-26 39.5q-31 -42 -87 -63.5t-115 -21.5q-144 0 -229 105.5t-60 258.5z" />
<glyph unicode="H" horiz-adv-x="750" d="M33 0l5 31h24q54 0 68 9t19 38l88 527q5 29 -6 38t-65 9h-24l5 31q34 -3 147 -3q112 0 148 3l-5 -31h-24q-54 0 -68 -9t-19 -38l-39 -234h299l39 234q5 29 -6 38t-65 9h-24l5 31q34 -3 147 -3q112 0 148 3l-5 -31h-24q-54 0 -68 -9t-19 -38l-88 -527q-5 -29 6 -38t65 -9 h24l-5 -31q-34 3 -147 3q-112 0 -148 -3l5 31h24q54 0 68 9t19 38l44 262h-299l-44 -262q-5 -29 6 -38t65 -9h24l-5 -31q-34 3 -147 3q-112 0 -148 -3z" />
<glyph unicode="I" horiz-adv-x="361" d="M28 0l5 31h26q56 0 70.5 9t19.5 38l88 527q5 29 -6.5 38t-67.5 9h-26l5 31q34 -3 152 -3q117 0 153 3l-5 -31h-26q-56 0 -70.5 -9t-19.5 -38l-88 -527q-5 -29 6.5 -38t67.5 -9h26l-5 -31q-34 3 -152 3q-117 0 -153 -3z" />
<glyph unicode="J" horiz-adv-x="514" d="M60 112q5 30 24.5 44t40.5 14q23 0 37 -15t10 -41q-9 -56 -73 -56q9 -20 25 -33t33.5 -18t26 -6t15.5 -1q42 0 79 41t49 107l76 456q4 17 1 28t-23 15.5t-68 4.5h-36l5 31q37 -3 167 -3l130 3l-5 -31q-51 0 -65 -6t-19 -35l-74 -444q-7 -41 -8 -44q-19 -59 -78 -102 t-133 -43q-67 0 -107 39t-30 95z" />
<glyph unicode="K" horiz-adv-x="778" d="M33 0l5 31h24q54 0 68 9t19 38l88 527q5 29 -6 38t-65 9h-24l5 31q34 -3 147 -3q112 0 148 3l-5 -31h-24q-54 0 -68 -9t-19 -38l-53 -318l363 299q21 16 23 33q1 6 -0.5 12.5t-11.5 13.5t-28 7l5 31q33 -3 126 -3q59 0 86 3l-5 -31q-36 0 -73.5 -15t-53 -25.5 t-25.5 -19.5l-209 -173l174 -340q16 -31 35 -39.5t62 -8.5l-5 -31l-114 3q-108 0 -144 -3l5 31q59 0 64 30q2 10 -9 34l-136 268l-135 -110l-29 -175q-5 -29 6 -38t65 -9h24l-5 -31q-34 3 -147 3q-112 0 -148 -3z" />
<glyph unicode="L" horiz-adv-x="625" d="M33 0l5 31h24q54 0 68 9t19 38l88 527q5 29 -6 38t-65 9h-24l5 31q34 -3 151 -3q132 0 169 3l-5 -31h-33q-66 0 -82.5 -9.5t-20.5 -38.5l-89 -533q-5 -26 1.5 -33t40.5 -7h82q37 0 67.5 8t52 18.5t40 31t29 36.5t21.5 44t16 44t13 45h25l-71 -258h-521z" />
<glyph unicode="M" horiz-adv-x="917" d="M37 0l5 31q36 0 60 7t35 20.5t14.5 22.5t6.5 24l83 500q5 29 -6 38t-65 9h-24l5 31h169q18 0 22.5 -3t8.5 -19l124 -560l313 563q8 14 12.5 16.5t23.5 2.5h169l-5 -31h-24q-54 0 -68 -9t-19 -38l-88 -527q-5 -29 6 -38t65 -9h24l-5 -31q-36 3 -142 3q-107 0 -145 -3l5 31 h24q54 0 68 9t19 38l96 574h-1l-352 -633q-10 -19 -21 -19t-16 22l-138 622h-1l-89 -539q-4 -10 -2.5 -23t7 -24t27.5 -19t58 -8l-5 -31l-116 3z" />
<glyph unicode="N" horiz-adv-x="750" d="M33 0l5 31q36 0 60 7t35 20.5t14.5 22.5t6.5 24l87 522q2 14 -1 17.5t-20 5.5q-28 2 -49 2h-29l5 31h170q14 0 18 -2t9 -11l266 -519l71 427q4 10 2.5 23t-7 24t-27.5 19t-58 8l5 31l116 -3l118 3l-5 -31q-36 0 -60 -7t-35 -20.5t-14.5 -22.5t-6.5 -24l-92 -552 q-2 -11 -3 -15.5t-4.5 -7.5t-10.5 -3t-15 13l-308 600q-3 5 -8 12l-86 -520q-4 -10 -2.5 -23t7 -24t27.5 -19t58 -8l-5 -31l-116 3z" />
<glyph unicode="O" horiz-adv-x="778" d="M113 339q25 153 141 259.5t252 106.5q137 0 217 -107t55 -259q-25 -151 -141 -256t-253 -105q-135 0 -216 104.5t-55 256.5zM218 353q-14 -98 -5.5 -164.5t39 -107.5t65 -59t73.5 -18q38 0 78.5 18t82.5 56t76 109.5t50 165.5q14 76 6.5 132t-25 93.5t-46 60t-56 32 t-55.5 9.5q-35 0 -74 -15.5t-81.5 -50t-77.5 -102t-50 -159.5z" />
<glyph unicode="P" horiz-adv-x="681" d="M35 0l5 31h24q54 0 68 9t19 38l88 527q5 29 -6 38t-65 9h-24l5 31h353q101 0 159 -55.5t46 -130.5q-13 -74 -90 -127.5t-168 -53.5h-169l-40 -238q-5 -29 6 -38t65 -9h24l-5 -31q-34 3 -147 3q-112 0 -148 -3zM281 342h138q45 0 79.5 12.5t52.5 28t30.5 40.5t15.5 39 t7 35q3 15 4 24t1 27.5t-3.5 30.5t-13 27t-24 24t-39.5 15.5t-58 6.5h-89q-34 0 -42.5 -7t-13.5 -33z" />
<glyph unicode="Q" horiz-adv-x="778" d="M113 339q25 153 141 259.5t252 106.5q137 0 217 -107t55 -259q-19 -111 -90.5 -201.5t-168.5 -130.5q10 -51 28 -74.5t52 -23.5t64 22.5t41 61.5q5 18 14 18q11 0 7 -21q-4 -24 -13.5 -51t-26.5 -59t-46 -53t-65 -21q-23 0 -39.5 7.5t-26 20t-15.5 30.5t-7.5 38.5 t-2.5 43.5t0 47q-52 -15 -98 -15q-137 0 -217 105t-55 256zM213 339q-8 -58 -9 -102.5t9.5 -79.5t22 -58.5t29 -41t31.5 -26.5t29 -15q-21 42 10.5 87t79.5 45q41 0 62.5 -28.5t32.5 -77.5q133 87 168 297q13 96 3.5 161t-40 105t-66 57.5t-74.5 17.5q-38 0 -78.5 -17.5 t-83 -54.5t-77 -107t-49.5 -162zM341 64q-2 -10 -0.5 -22.5t14 -25.5t35.5 -13q46 0 91 23q-1 48 -16.5 74t-53.5 26q-19 0 -34.5 -9.5t-24 -23.5t-11.5 -29z" />
<glyph unicode="R" horiz-adv-x="736" d="M35 0l5 31h24q54 0 68 9t19 38l88 527q5 29 -6 38t-65 9h-24l5 31h314q109 0 176 -53.5t55 -126.5q-9 -56 -66 -100t-136 -63q93 -34 102 -116v-80q0 -45 0.5 -63.5t4.5 -41.5t14 -31t28 -8q23 0 46 20.5t35 68.5q5 16 15 16q13 0 10 -17q-3 -19 -13.5 -41.5t-38 -45.5 t-62.5 -23q-78 0 -119 42q-23 26 -25.5 61.5t8.5 81.5q10 48 8.5 78.5t-23.5 55.5q-30 34 -88 34h-115l-42 -253q-5 -29 6 -38t65 -9h24l-5 -31q-35 3 -145 3t-147 -3zM283 353h111q171 0 197 150q7 42 -1.5 71t-23.5 44t-44.5 23t-51 9.5t-56.5 1.5q-49 0 -60 -2 q-11 -1 -16.5 -6.5t-7.5 -11.5t-4 -20z" />
<glyph unicode="S" horiz-adv-x="556" d="M56 2l34 200q2 11 3 15t4.5 7t9.5 3q11 0 10 -10q-14 -98 37 -154q48 -54 149 -54q60 0 104 43t53 100q9 52 -15 92q-10 17 -25 28t-24.5 14.5t-27.5 8.5q-119 30 -126 33q-56 20 -83.5 70.5t-17.5 112.5q14 80 80 137t148 57q41 0 73 -13t44.5 -24.5t30.5 -32.5l44 57 q10 13 18 13q7 0 8 -4.5t0 -15.5q-1 -2 -1 -4l-34 -201q-2 -15 -5 -19.5t-12 -4.5q-10 0 -10 12q3 11 0.5 31t-4 43t-13 47t-27.5 43.5t-46 32t-70 12.5q-57 0 -101 -38.5t-53 -92.5q-8 -44 14 -80t66 -47l123 -31q61 -15 95 -71.5t21 -130.5q-14 -85 -80 -146.5t-152 -61.5 q-62 0 -106.5 20.5t-65.5 49.5l-46 -57q-9 -13 -17 -13t-9 5.5t2 18.5z" />
<glyph unicode="T" horiz-adv-x="722" d="M111 452l57 225h611l-19 -225h-25q10 79 1 122t-40 57.5t-108 14.5q-46 0 -58 -2q-19 -4 -24 -38l-88 -527q-3 -17 -0.5 -27.5t24.5 -15.5t73 -5h40l-5 -31q-40 3 -189 3q-148 0 -190 -3l5 31h40q73 0 91 9.5t22 38.5l88 527q2 14 2.5 20t-3.5 11t-14 7q-9 2 -53 2 q-59 0 -91.5 -6.5t-56 -31t-36 -57t-29.5 -99.5h-25z" />
<glyph unicode="U" horiz-adv-x="750" d="M142 652l5 31q34 -3 147 -3q112 0 148 3l-5 -31h-24q-54 0 -68 -9t-19 -38l-64 -381q-11 -67 0 -113t36.5 -66.5t48 -28t45.5 -7.5q76 0 144 60.5t85 161.5l57 347q4 10 2.5 23t-7 24t-27.5 19t-58 8l5 31l118 -3l119 3l-5 -31q-36 0 -60 -7t-35 -20.5t-14.5 -23.5 t-6.5 -27l-54 -320q-7 -45 -14 -69q-28 -87 -100 -147t-157 -60q-103 0 -165 72.5t-45 177.5l63 377q5 29 -6 38t-65 9h-24z" />
<glyph unicode="V" horiz-adv-x="750" d="M128 652l5 31l126 -3q107 0 144 3l-5 -31q-82 0 -87 -29q-1 -4 3 -18l107 -505l263 482q7 15 8 20q3 20 -12.5 34.5t-51.5 15.5l5 31l113 -3q52 0 98 3l-5 -31q-84 -1 -120 -67l-322 -588q-6 -12 -10.5 -15.5t-16.5 -3.5q-10 0 -14 4t-7 18l-130 614q-5 27 -21 32.5 t-70 5.5z" />
<glyph unicode="W" horiz-adv-x="1028" d="M127 652l5 31l121 -3q106 0 143 3l-5 -31q-84 0 -89 -30q-2 -6 0 -13l79 -492l210 429l-10 70q-4 25 -20 30.5t-64 5.5l5 31l121 -3q106 0 143 3l-5 -31q-84 0 -89 -30v-15l79 -490l227 462q7 14 8 20q3 19 -15 35.5t-63 17.5l5 31l118 -3q47 0 92 3l-5 -31 q-79 0 -111 -67l-289 -587q-6 -12 -10 -16t-14 -4q-12 0 -16 19l-81 509l-249 -508q-6 -12 -10 -16t-14 -4q-12 0 -16 19l-97 613q-5 29 -17 35.5t-67 6.5z" />
<glyph unicode="X" horiz-adv-x="750" d="M24 0l5 31q100 0 156 66l205 242l-138 278q-10 21 -28 28t-59 7h-19l5 31l129 -3q111 0 147 3l-5 -31q-30 -1 -49 -10.5t-21 -19.5q0 -2 4 -15l97 -193l142 169q11 14 13 23q3 18 -11 31.5t-43 14.5l5 31q39 -3 127 -3l112 3l-5 -31q-102 -1 -156 -65l-171 -201l158 -319 q12 -22 29.5 -29t58.5 -7h19l-5 -31l-129 3q-111 0 -147 -3l5 31q30 1 49 10.5t21 19.5q0 1 -0.5 3t-1.5 4.5t-1 3.5l-118 239l-177 -210q-13 -16 -14 -24q-3 -16 10.5 -30.5t44.5 -15.5l-5 -31q-35 3 -127 3z" />
<glyph unicode="Y" horiz-adv-x="750" d="M120 652l5 31l129 -3q112 0 149 3l-5 -31q-37 0 -54.5 -5t-19.5 -20q-2 -8 4 -17l132 -295l209 268q12 15 15 30t-9 27t-41 12l5 31l114 -3q53 0 99 3l-5 -31q-89 0 -139 -65l-245 -314l-33 -193q-5 -31 6 -40t66 -9h23l-5 -31q-35 3 -145 3t-147 -3l5 31h24q54 0 68 9 t19 38l33 195l-153 342q-10 22 -24.5 29.5t-61.5 7.5h-18z" />
<glyph unicode="Z" horiz-adv-x="611" d="M59 17q1 9 10 20l492 615h-157q-60 0 -102 -13.5t-67.5 -41.5t-39.5 -60t-25 -79h-25l49 225h448q9 0 12.5 -0.5t7.5 -1.5t3 -4.5t0 -9.5q-1 -8 -10 -19l-490 -614h164q67 0 112 15.5t71.5 50.5t40 70.5t27.5 96.5h25l-62 -267h-461q-17 0 -21 2.5t-2 14.5z" />
<glyph unicode="[" horiz-adv-x="278" d="M76 -250l167 1000h137l-7 -40h-97l-153 -920h97l-7 -40h-137z" />
<glyph unicode="\" d="M178 730q4 20 23 20q14 0 18 -22l184 -940l2 -18q-4 -20 -24 -20q-14 0 -18 22l-183 940z" />
<glyph unicode="]" horiz-adv-x="278" d="M-20 -250l7 40h97l153 920h-97l7 40h137l-167 -1000h-137z" />
<glyph unicode="^" horiz-adv-x="556" d="M92 584l310 160l256 -160l-15 -22l-252 123l-291 -123z" />
<glyph unicode="_" horiz-adv-x="750" d="M-23 -138l4 26h750l-4 -26h-750z" />
<glyph unicode="`" d="M236 662q2 14 15 25t27 11q20 0 28 -17l94 -153l-20 -18l-132 122q-15 15 -12 30z" />
<glyph unicode="a" d="M58 95q13 84 122 130q65 29 190 36l6 37q10 62 -16.5 95t-68.5 33q-73 0 -116 -46q30 -1 38.5 -16t5.5 -30q-4 -20 -18.5 -33t-35.5 -13q-20 0 -31 12.5t-7 34.5q8 49 57.5 81t112.5 32q81 0 128 -55q19 -25 21.5 -57t-5.5 -61l-33 -200q0 -4 -1 -15t6.5 -23t22.5 -12 q36 0 47 64l9 56h25l-9 -56q-6 -37 -27 -60t-38.5 -29t-32.5 -6q-33 0 -49.5 24.5t-14.5 57.5q-22 -38 -60.5 -62.5t-85.5 -24.5q-59 0 -105 25.5t-37 80.5zM135 96q-6 -37 16.5 -61t59.5 -24q42 0 85 32.5t53 96.5l17 100q-112 -4 -167 -48t-64 -96z" />
<glyph unicode="b" horiz-adv-x="556" d="M106 0l99 596q7 37 -4.5 46.5t-63.5 9.5l5 31l146 11l-53 -317q69 65 148 65q86 0 138 -66t36 -160q-16 -95 -93 -161t-168 -66q-81 0 -119 73l-46 -62h-25zM194 114q-2 -13 -1 -20t8 -22q30 -61 95 -61q68 0 124 64q39 49 54 142q16 94 -6 139q-29 64 -94 64 q-73 0 -129 -64q-13 -16 -17 -36z" />
<glyph unicode="c" horiz-adv-x="444" d="M70 216q16 95 90 163.5t166 68.5q61 0 102 -29t33 -78q-4 -22 -19 -34.5t-35 -12.5q-33 0 -39 30q-6 31 22 51q14 10 33 11q-30 37 -100 37q-51 0 -101 -48t-69 -157q-17 -108 19 -156t88 -48q98 0 149 105q5 10 15 10q3 0 5 -0.5t4.5 -2.5t1.5 -7t-7 -17.5t-21.5 -32.5 t-36 -37.5t-53 -30t-70.5 -12.5q-88 0 -140.5 66t-36.5 161z" />
<glyph unicode="d" horiz-adv-x="556" d="M70 215q15 95 93 161t168 66q75 0 115 -62l36 216q7 37 -4.5 46.5t-63.5 9.5l5 31l146 11l-101 -607q-7 -37 4.5 -46.5t63.5 -9.5l-5 -31l-149 -11l11 66q-62 -66 -145 -66q-86 0 -138 66t-36 160zM153 214q-16 -94 6 -139q29 -64 94 -64q75 0 130 70q14 18 17 37l34 205 q3 19 -5 37q-31 60 -98 60q-68 0 -124 -64q-39 -49 -54 -142z" />
<glyph unicode="e" horiz-adv-x="444" d="M65 220q16 94 87.5 161t158.5 67q88 0 124 -57.5t22 -138.5q-2 -15 -6.5 -18t-21.5 -3h-279q-17 -102 5 -150q13 -30 39 -48.5t62 -18.5q10 0 22 2t37 10.5t50.5 31.5t43.5 59q5 14 15 14q13 0 11 -12q-1 -9 -14 -28.5t-35 -43t-60 -41t-80 -17.5q-89 0 -143.5 66.5 t-37.5 164.5zM154 252h237q3 15 4 33.5t-1.5 44.5t-10.5 46.5t-27.5 35t-48.5 14.5q-16 0 -34.5 -7t-42.5 -23.5t-44.5 -54t-31.5 -89.5z" />
<glyph unicode="f" horiz-adv-x="306" d="M34 0l5 31q53 0 66.5 6.5t19.5 38.5l54 324h-79l5 31h79l19 115q13 74 68 116.5t114 42.5q39 0 61 -20.5t17 -49.5q-3 -19 -16.5 -31.5t-34.5 -12.5q-20 0 -29.5 12.5t-6.5 30.5q5 32 37 42q-14 7 -32 7q-36 0 -70 -37t-45 -99l-19 -116h117l-5 -31h-114l-54 -322 q-5 -29 5.5 -38t62.5 -9h21l-5 -31q-39 3 -126 3z" />
<glyph unicode="g" d="M15 -79q5 31 34 59.5t75 40.5q-40 28 -30 89q8 46 45 83q-40 40 -30 103q10 59 64.5 102.5t122.5 43.5q60 0 100 -36q56 47 114 47q26 0 35.5 -16t6.5 -33q-2 -15 -13 -22.5t-21 -7.5q-25 0 -24 24.5t21 31.5l-10 1q-49 0 -97 -39q35 -36 25 -97q-10 -59 -64 -102.5 t-122 -43.5q-56 0 -94 31q-18 -18 -25 -47q-4 -25 7.5 -44.5t34.5 -22.5q7 -1 75 -1q40 0 61.5 -1t52.5 -7.5t53 -19.5q59 -35 46 -114q-9 -57 -80.5 -93t-162.5 -36q-92 0 -150.5 36.5t-49.5 90.5zM67 -79q-7 -41 36 -72.5t116 -31.5q72 0 126 31t61 73q3 16 0.5 28.5 t-11.5 21t-18 15t-26 10.5t-29 6.5t-33.5 3.5t-33 1h-33.5h-59q-34 -2 -62.5 -27t-33.5 -59zM184 295q-3 -16 -3.5 -30.5t2.5 -38.5t20.5 -39t47.5 -15q44 0 77 40q22 27 30 84q21 123 -66 123q-45 0 -78 -40q-19 -25 -30 -84z" />
<glyph unicode="h" horiz-adv-x="556" d="M32 0l5 31q53 0 66.5 6.5t19.5 38.5l86 520q7 37 -4.5 46.5t-63.5 9.5l5 31l146 11l-58 -348h1q22 36 63 66t97 30q73 0 99 -37q12 -18 15 -39.5t1 -41t-11 -72.5l-32 -191q-3 -21 12.5 -25.5t60.5 -4.5l-5 -31l-111 3l-114 -3l5 31q53 0 66.5 6.5t19.5 38.5l39 233 q18 111 -56 111q-52 0 -100.5 -43.5t-61.5 -116.5l-30 -184q-6 -32 5.5 -38.5t64.5 -6.5l-5 -31l-111 3z" />
<glyph unicode="i" horiz-adv-x="278" d="M33 0l5 31q53 0 66.5 6.5t19.5 38.5l45 269q6 37 -5 46t-60 9l5 31l142 11l-61 -367q-5 -30 4 -37t58 -7l-5 -31q-102 3 -103 3zM186 604q3 20 21 36.5t42 16.5q22 0 34.5 -16t9.5 -37q-3 -20 -21 -36.5t-42 -16.5q-22 0 -35 16t-9 37z" />
<glyph unicode="j" horiz-adv-x="306" d="M-61 -125q3 20 18 33t36 13t31 -13t7 -33q-3 -18 -15.5 -29.5t-26.5 -15.5q23 -13 51 -13q23 0 41 13.5t28.5 35.5t16.5 42t9 40l66 396q7 37 -6 46.5t-70 9.5l5 31l154 11l-82 -492q-12 -67 -59 -111t-104 -44q-46 0 -76 21.5t-24 58.5zM204 604q3 20 21 36.5t42 16.5 q22 0 34.5 -16t9.5 -37q-3 -20 -21 -36.5t-42 -16.5q-22 0 -35 16t-9 37z" />
<glyph unicode="k" horiz-adv-x="528" d="M28 0l5 31q53 0 66.5 6.5t19.5 38.5l86 520q7 37 -4.5 46.5t-63.5 9.5l5 31l146 11l-80 -480l161 122q25 20 29 39q4 23 -25 25l5 31q42 -3 111 -3q41 0 71 3l-5 -31q-64 -3 -135 -54q-13 -9 -53 -39t-40 -33q-1 -2 4 -11l97 -179q14 -25 28.5 -37t25.5 -14t34 -2l-5 -31 q-43 3 -86 3l-109 -3l5 31q36 0 40 23q3 16 -70 145q-12 23 -19 35l-73 -55l-17 -103q-6 -32 5.5 -38.5t64.5 -6.5l-5 -31l-109 3z" />
<glyph unicode="l" horiz-adv-x="278" d="M33 0l5 31q53 0 66.5 6.5t19.5 38.5l86 520q7 37 -4.5 46.5t-63.5 9.5l5 31l146 11l-103 -618q-6 -32 5.5 -38.5t64.5 -6.5l-5 -31l-110 3z" />
<glyph unicode="m" horiz-adv-x="833" d="M32 0l5 31q53 0 66.5 6.5t19.5 38.5l44 268q7 37 -4.5 46.5t-63.5 9.5l5 31l143 11l-18 -105q66 105 166 105q20 0 37.5 -3.5t37 -12.5t30.5 -30t11 -52q24 38 65 68t97 30q73 0 99 -37q12 -18 15 -39.5t1 -41t-11 -72.5l-32 -191q-3 -21 12.5 -25.5t60.5 -4.5l-5 -31 l-111 3l-114 -3l5 31q53 0 66.5 6.5t19.5 38.5l39 233q18 111 -56 111q-52 0 -100.5 -43.5t-61.5 -116.5l-30 -184q-6 -32 5.5 -38.5t64.5 -6.5l-5 -31l-111 3l-114 -3l5 31q53 0 66.5 6.5t19.5 38.5l39 233q18 111 -56 111q-52 0 -100.5 -43.5t-61.5 -116.5l-30 -184 q-6 -32 5.5 -38.5t64.5 -6.5l-5 -31l-111 3z" />
<glyph unicode="n" horiz-adv-x="556" d="M32 0l5 31q53 0 66.5 6.5t19.5 38.5l44 268q7 37 -4.5 46.5t-63.5 9.5l5 31l143 11l-18 -105q66 105 166 105q73 0 99 -37q12 -18 15 -39.5t1 -41t-11 -72.5l-32 -191q-3 -21 12.5 -25.5t60.5 -4.5l-5 -31l-111 3l-114 -3l5 31q53 0 66.5 6.5t19.5 38.5l39 233 q18 111 -56 111q-52 0 -100.5 -43.5t-61.5 -116.5l-30 -184q-6 -32 5.5 -38.5t64.5 -6.5l-5 -31l-111 3z" />
<glyph unicode="o" d="M64 214q16 95 92 164.5t169 69.5q91 0 144.5 -69t37.5 -165q-16 -94 -92 -159.5t-168 -65.5q-89 0 -144 65t-39 160zM148 222q-16 -97 2 -141q28 -67 102 -67q37 0 71.5 20t57.5 54q29 44 44 134q15 97 -3 139q-29 65 -102 65q-32 0 -66 -17t-59 -50q-30 -43 -47 -137z " />
<glyph unicode="p" horiz-adv-x="556" d="M-4 -194l5 31q53 0 66.5 6.5t18.5 38.5l78 468q6 33 -5 41.5t-64 8.5l5 31l146 11l-11 -66q69 66 151 66q85 0 136 -66t35 -160q-16 -95 -93 -161t-168 -66q-50 0 -79.5 25.5t-31.5 44.5q-6 -34 -16.5 -97t-13.5 -80q-5 -32 6.5 -38.5t64.5 -6.5l-5 -31l-113 3zM194 114 q-2 -15 -1 -20.5t8 -21.5q30 -61 95 -61q57 0 110 58.5t68 146.5q14 84 -15.5 142.5t-84.5 58.5q-83 0 -143 -80z" />
<glyph unicode="q" horiz-adv-x="528" d="M70 215q16 96 93 161.5t166 65.5q37 0 64.5 -18t38 -36t16.5 -37l53 91h22l-94 -560q-5 -32 6.5 -38.5t64.5 -6.5l-5 -31l-113 3l-112 -3l5 31q53 0 66.5 6.5t18.5 38.5l30 179q-67 -72 -145 -72q-87 0 -139 66.5t-36 159.5zM153 215q-14 -86 15.5 -145t84.5 -59 q52 0 99 41q46 43 54 84l23 141q8 47 -17.5 93.5t-80.5 46.5q-57 0 -110 -57.5t-68 -144.5z" />
<glyph unicode="r" horiz-adv-x="392" d="M28 0l5 31q53 0 66.5 6.5t19.5 38.5l44 268q7 37 -4.5 46.5t-63.5 9.5l5 31l141 11l-19 -110q56 110 142 110q32 0 50 -18t14 -43q-4 -22 -19.5 -33t-31.5 -11q-18 0 -28.5 11.5t-7.5 31.5q2 12 9.5 21.5t12.5 13t8 4.5q-2 1 -11 1q-55 0 -95.5 -55t-53.5 -133l-26 -154 q-5 -29 5.5 -38t62.5 -9h21l-5 -31q-39 3 -126 3z" />
<glyph unicode="s" horiz-adv-x="394" d="M35 13l22 132q2 11 3 15t4.5 7t9.5 3q7 0 9 -3.5t3 -13.5q3 -69 29 -105.5t86 -36.5q56 0 89 25.5t39 65.5q3 20 -3 36.5t-16 26t-26 16.5t-25 9t-19 4q-58 12 -81 20t-43 26q-37 36 -29 85q9 50 53.5 86.5t127.5 36.5q56 0 89 -28q10 6 20 16q15 12 22 12q8 0 9 -5.5 t-2 -18.5l-17 -101q-2 -11 -3 -15t-4.5 -6.5t-9.5 -2.5q-11 0 -11 9q16 121 -96 121q-40 0 -68.5 -12t-41 -28.5t-15.5 -35.5q-3 -17 3 -30t15 -20.5t27.5 -14.5t30 -9.5t33.5 -7.5q26 -5 41 -9t33.5 -14t31.5 -25q35 -42 26 -95q-10 -59 -56.5 -99t-127.5 -40 q-65 0 -103 43q-7 -6 -20 -19.5t-19.5 -18.5t-12.5 -5q-8 0 -9 5.5t2 18.5z" />
<glyph unicode="t" horiz-adv-x="389" d="M86 400l3 22q67 3 107.5 60.5t54.5 132.5h25l-31 -184h143l-5 -31h-143l-47 -278q-13 -108 49 -108q29 0 53 29.5t33 82.5l9 55h25l-9 -57q-9 -54 -41 -94.5t-81 -40.5q-11 0 -22 1.5t-26.5 6t-26 13.5t-21.5 24t-12 37t2 53l46 276h-85z" />
<glyph unicode="u" horiz-adv-x="556" d="M99 400l5 31l149 11l-56 -332q-3 -27 -3.5 -49t18 -36t57.5 -14q54 0 95 44t52 111l29 178q7 37 -4.5 46.5t-63.5 9.5l5 31l149 11l-59 -355q-7 -37 4.5 -46.5t63.5 -9.5l-5 -31l-146 -11l15 90q-57 -90 -144 -90q-44 0 -72.5 11t-41 25t-16 41t-1.5 43.5t7 48.5l25 150 q12 67 4 79.5t-66 12.5z" />
<glyph unicode="v" horiz-adv-x="528" d="M86 400l5 31q45 -3 96 -3l110 3l-5 -31q-57 0 -62 -26q0 -4 4 -17l65 -279l145 255q9 20 10 24q3 17 -6.5 29.5t-34.5 13.5l5 31l86 -3q42 0 76 3l-5 -31q-69 -1 -103 -67l-186 -325q-10 -19 -24 -19q-9 0 -12 3.5t-6 15.5l-84 355q-6 25 -17.5 31t-56.5 6z" />
<glyph unicode="w" horiz-adv-x="722" d="M85 400l5 31l92 -3l110 3l-5 -31q-59 0 -64 -27q0 -10 2 -18l51 -267l126 242q-10 50 -14 55q-9 15 -60 15l5 31q45 -3 88 -3l105 3l-5 -31q-59 0 -64 -27q-1 -3 2 -19l53 -279l133 256q8 15 9 21q4 22 -9.5 34.5t-40.5 13.5l5 31l92 -3q41 0 74 3l-5 -31q-63 -2 -95 -64 l-172 -328q-9 -19 -23 -19t-17 19l-54 284l-148 -283q-11 -20 -24 -20q-14 0 -17 22l-67 354q-5 23 -17 29t-51 6z" />
<glyph unicode="x" horiz-adv-x="528" d="M12 0l5 31q79 0 138 60q19 19 114 119l-77 129q-8 12 -11.5 18t-8.5 14t-9 10.5t-8 7t-9.5 5.5t-10.5 3t-14 2t-16 0.5t-21 0.5l5 31q40 -3 94 -3l109 3l-5 -31q-22 -1 -33.5 -13t0.5 -30l61 -101l75 78q18 18 21 35q4 28 -24 31l5 31q39 -3 95 -3q44 0 83 3l-5 -31 q-76 -2 -128 -52q-10 -9 -111 -113l105 -173q14 -21 30.5 -26t59.5 -5l-5 -31q-45 3 -95 3l-109 -3l5 31q18 1 28.5 9t11.5 16q1 4 -15 33l-59 100q-92 -90 -104 -110q-7 -10 -8 -17q-4 -27 24 -31l-5 -31l-94 3q-45 0 -84 -3z" />
<glyph unicode="y" horiz-adv-x="528" d="M-2 -124q3 21 17.5 32t31.5 11q18 0 28.5 -11.5t6.5 -30.5q-5 -37 -46 -42q16 -18 44 -18q23 0 43 10.5t37.5 32t28.5 38t26 43.5l35 59l-89 365q-6 24 -20 29.5t-55 5.5l5 31q45 -3 96 -3l110 3l-5 -31q-56 0 -61 -26q0 -3 3 -18l67 -269l142 246q15 22 8.5 44t-38.5 23 l5 31l86 -3q42 0 76 3l-5 -31q-66 0 -104 -64l-247 -427q-68 -114 -147 -114q-38 0 -61 23.5t-18 57.5z" />
<glyph unicode="z" horiz-adv-x="444" d="M30 14q1 6 12 18l342 377h-114q-79 0 -109.5 -29t-48.5 -110h-25l38 161h320h11.5t7.5 -1.5t5 -4t0 -7.5q-2 -7 -12 -17l-341 -376h118q83 0 117 34.5t56 127.5h25l-48 -187h-330q-16 0 -20.5 2t-3.5 12z" />
<glyph unicode="{" d="M114 250q1 11 16 11q64 4 111 45q22 20 29 41t20 97l31 183q10 53 72 88t139 35q8 0 11 -0.5t5.5 -3t1.5 -7.5q-2 -9 -11 -11q-32 -2 -57.5 -10.5t-35.5 -15.5t-25 -20q-20 -18 -27 -39t-17 -80l-30 -180q-3 -17 -7.5 -29t-17.5 -34t-42.5 -40t-72.5 -30q97 -29 99 -103 q0 -7 -14 -91l-25 -150q-6 -36 -5 -48q3 -32 30 -57.5t81 -28.5q5 -1 6.5 -1t5 -1t2.5 -3t0 -6q-2 -11 -22 -11q-84 0 -132 38q-32 25 -36.5 56.5t5.5 72.5l33 198q6 35 -3 60.5t-29 38t-38 18.5t-37 7q-5 1 -6.5 1t-5 1t-2.5 3t0 6z" />
<glyph unicode="|" horiz-adv-x="278" d="M83 -217l156 934q5 33 25 33t15 -33l-156 -934q-2 -11 -3.5 -15.5t-7.5 -11t-15 -6.5q-21 0 -14 33z" />
<glyph unicode="}" d="M32 -239q2 9 11 11q33 2 58.5 10.5t35.5 15.5t25 20q20 17 26.5 37.5t16.5 81.5l31 180q2 12 4 21.5t11 27t23 31t40.5 28.5t61.5 25q-97 29 -99 103q0 13 13 91l25 150q6 36 5 48q-3 32 -30 57.5t-81 28.5q-6 1 -8 1.5t-4 2.5t-2 7q2 11 22 11q83 0 133 -38 q31 -25 36 -56.5t-6 -72.5l-33 -198q-6 -35 3.5 -60.5t29 -38t37.5 -18.5t38 -7q6 -1 8 -1.5t4 -2.5t2 -7q-2 -11 -16 -11q-62 -4 -112 -45q-22 -20 -29 -42t-20 -96l-30 -183q-10 -53 -72.5 -88t-139.5 -35q-7 0 -10 0.5t-6 3t-2 7.5z" />
<glyph unicode="~" horiz-adv-x="556" d="M35 210l61 44q22 16 63 35q43 18 76 18q27 0 53 -11t44 -24.5t43.5 -24.5t51.5 -11q68 0 165 71l11 -17l-61 -44q-23 -17 -63 -35q-41 -18 -76 -18q-27 0 -53 11t-44 24.5t-43.5 24.5t-51.5 11q-68 0 -165 -71z" />
<glyph unicode="&#xa0;" />
<glyph unicode="&#xa1;" horiz-adv-x="278" d="M58 -165l116 456q4 22 17 22t10 -23l-36 -444l-1 -11q-4 -23 -22 -37t-39 -14t-35 14t-10 37zM161 447q3 22 21 37.5t40 15.5t35 -15.5t10 -37.5q-4 -22 -22 -37.5t-40 -15.5t-35 15.5t-9 37.5z" />
<glyph unicode="&#xa2;" horiz-adv-x="444" d="M70 216q15 89 82 155.5t152 75.5l2 14q2 15 17 15t13 -15l-2 -13q59 -2 97 -31t30 -76q-4 -22 -19 -34.5t-35 -12.5q-33 0 -39 30q-6 31 22 51q14 10 33 11q-26 33 -93 37l-69 -409q98 0 148 105q5 10 15 10q3 0 5 -0.5t4.5 -2.5t1.5 -7t-7 -17t-20.5 -31.5t-33.5 -36.5 t-50 -30t-67 -15l-3 -19q-2 -15 -18 -15q-14 0 -12 15l3 20q-80 8 -126 72t-31 154zM153 218q-15 -91 10 -139.5t69 -60.5l67 403q-47 -10 -88.5 -58.5t-57.5 -144.5z" />
<glyph unicode="&#xa3;" horiz-adv-x="750" d="M76 82q8 48 55.5 76.5t105.5 28.5q48 0 91 -30q3 14 2 85t-1 85h-155l5 30h150q2 49 6 74q17 101 80.5 176.5t147.5 75.5q67 0 108 -44t31 -108q-4 -19 -19.5 -32.5t-34.5 -13.5t-30.5 13.5t-7.5 32.5q3 19 18.5 32.5t34.5 13.5q2 0 6 -0.5t5 -0.5q-6 24 -22 42.5 t-40 28.5t-53 10q-32 0 -58.5 -18.5t-44.5 -49t-31 -70.5t-19 -80t-8 -82h156l-5 -30h-152q-1 -41 0 -74t-1 -74t-8 -75q31 -29 47.5 -43t47.5 -29t62 -15q51 0 92 37.5t49 89.5h26q-13 -74 -47.5 -126.5t-87.5 -52.5q-21 0 -41 6t-34 12t-33.5 21.5t-28 23t-29.5 28.5 l-27 27q-17 -53 -81 -79t-144 -26q-42 0 -66.5 30.5t-16.5 73.5zM102 82q-5 -32 13 -55t49 -23q57 0 104 31t55 80l2 17q-44 29 -92 29t-86.5 -20.5t-44.5 -58.5z" />
<glyph unicode="&#xa4;" horiz-adv-x="778" d="M156 15q-3 3 -4 6.5t0.5 7t2.5 6.5t5 6.5t6 5t6 5.5l86 75q-35 54 -23 122.5t64 124.5l-61 74q-21 23 -4 38q6 5 11.5 6t10.5 -2t7.5 -5.5l7.5 -7.5l62 -75q62 44 130 44q69 0 116 -44l86 74q6 5 9.5 7.5t9.5 5.5t11 2t10 -6q2 -2 3 -4.5t1 -5v-4t-2 -4.5t-3 -4t-3.5 -4 t-3.5 -4t-4.5 -4l-3.5 -3l-87 -74q26 -39 26 -87.5t-18.5 -89.5t-47.5 -70l62 -75q19 -23 3 -37q-17 -14 -36 9l-63 74q-60 -44 -130 -44q-68 0 -117 44l-86 -74q-27 -23 -39 -9zM275 250q-7 -42 8 -78t47.5 -57t74.5 -21q64 0 117 45.5t64 110.5t-27 110.5t-102 45.5 q-65 0 -118.5 -46t-63.5 -110z" />
<glyph unicode="&#xa5;" horiz-adv-x="750" d="M120 652l5 31l129 -3q112 0 149 3l-5 -31q-37 0 -54.5 -5t-19.5 -20q-2 -8 4 -17l121 -271h30l190 244q12 15 15 30t-9 27t-41 12l5 31l114 -3q53 0 99 3l-5 -31q-89 0 -139 -65l-193 -248h142l-5 -30h-161l-28 -36l-14 -82h183l-5 -30h-183l-14 -81q-5 -31 6 -40t66 -9 h23l-5 -31q-35 3 -145 3t-147 -3l5 31h24q54 0 68 9t19 38l14 83h-181l5 30h181l14 82l-16 36h-159l5 30h140l-123 276q-10 22 -24.5 29.5t-61.5 7.5h-18z" />
<glyph unicode="&#xa6;" horiz-adv-x="278" d="M83 -217l62 374q3 15 23 15q8 0 13 -4.5t4 -10.5l-62 -374q-2 -11 -3.5 -15.5t-7.5 -11t-15 -6.5q-21 0 -14 33zM176 343l63 374q5 33 25 33t15 -33l-63 -374q-2 -15 -22 -15q-8 0 -13.5 4t-4.5 11z" />
<glyph unicode="&#xa7;" horiz-adv-x="484" d="M88 306q11 67 100 116q-31 53 -21 117q12 73 68.5 124.5t125.5 51.5q65 0 97 -55t20 -131q-3 -19 -18.5 -32.5t-34.5 -13.5t-30.5 13.5t-8.5 32.5t19 32.5t35 13.5q6 0 14 -2q-5 42 -32 69t-68 27q-46 0 -82 -38.5t-45 -91.5q-12 -71 73 -122l80 -50q116 -71 99 -173 q-10 -67 -100 -117q33 -54 21 -116q-12 -73 -68.5 -124.5t-125.5 -51.5q-65 0 -97 55t-20 131q3 19 19 32.5t35 13.5t30 -13.5t8 -32.5t-19 -32.5t-35 -13.5q-5 0 -13 2q5 -42 32 -69t68 -27q46 0 81.5 38.5t44.5 91.5q13 70 -72 122l-81 50q-116 72 -99 173zM166 306 q-10 -64 65 -112l81 -50q29 -19 52 -45q28 29 37 95q12 64 -65 112l-81 50q-29 18 -51 44q-26 -26 -38 -94z" />
<glyph unicode="&#xa8;" d="M214 605q3 18 19 32.5t38 14.5q20 0 31.5 -14.5t8.5 -32.5q-3 -19 -19 -33.5t-38 -14.5q-20 0 -31.5 14.5t-8.5 33.5zM392 605q3 18 19 32.5t38 14.5q20 0 31.5 -14.5t8.5 -32.5q-3 -19 -19 -33.5t-38 -14.5q-20 0 -31.5 14.5t-8.5 33.5z" />
<glyph unicode="&#xa9;" horiz-adv-x="683" d="M57 342q23 141 140 241t259 100q141 0 224 -100t60 -241q-23 -142 -140 -242t-258 -100q-142 0 -225 100t-60 242zM97 342q-21 -125 53 -213.5t199 -88.5t227.5 88.5t123.5 213.5q21 124 -52.5 212.5t-198.5 88.5t-228 -88t-124 -213zM211 342q14 83 80.5 141.5 t144.5 58.5q52 0 94 -47l34 40q5 7 9 7q7 0 4 -13l-22 -131q-1 -8 -2.5 -10.5t-7.5 -2.5q-5 0 -6 1.5t-1 5.5v2q1 60 -26 95.5t-72 35.5q-18 0 -38.5 -6.5t-49 -23t-52 -56.5t-32.5 -98q-9 -57 1 -97t33 -56.5t41.5 -22.5t35.5 -6q47 0 89 33.5t55 89.5q1 9 8 9t5 -9 q-9 -52 -56 -96.5t-110 -44.5q-78 0 -125.5 58.5t-33.5 142.5z" />
<glyph unicode="&#xaa;" horiz-adv-x="449" d="M111 458q11 59 100 91q54 20 159 25l4 26q8 44 -15.5 67t-58.5 23q-60 0 -96 -32q18 0 27 -7t10 -13t0 -12q-2 -15 -14 -24t-30 -9q-17 0 -26 9t-7 24q6 34 47 56.5t93 22.5q70 0 109 -38q17 -17 19.5 -40t-3.5 -43l-23 -140q0 -35 25 -35q30 0 38 45l6 39h21l-6 -39 q-5 -26 -22 -42t-31 -20t-27 -4q-28 0 -42.5 17t-13.5 40q-17 -26 -49 -43.5t-71 -17.5q-50 0 -89.5 18t-33.5 56zM121 333q-14 0 -13 10q2 10 16 11h319q12 0 13 -8q-4 -11 -16 -13h-319zM177 459q-4 -26 15 -43t51 -17q35 0 70.5 23t42.5 68l11 70q-93 -3 -138.5 -34 t-51.5 -67z" />
<glyph unicode="&#xab;" horiz-adv-x="556" d="M151 242q3 6 4 7q112 96 180 228q3 6 11 6h2q5 0 7 -4t0 -8q-47 -120 -132 -229q48 -107 56 -230q0 -4 -3.5 -8t-8.5 -4h-2q-8 0 -8 7q-25 131 -104 228q-2 2 -2 7zM318 242q3 6 4 7q112 96 180 228q3 6 11 6h2q5 0 7 -4t0 -8q-47 -120 -132 -229q48 -107 56 -230 q0 -4 -4 -8t-8 -4h-2q-8 0 -8 7q-25 131 -104 228q-2 2 -2 7z" />
<glyph unicode="&#xac;" horiz-adv-x="778" d="M131 327q-19 0 -16 19q2 17 17 20q3 1 5 1h625q8 0 13 -6t4 -14l-32 -194q-4 -20 -24 -20q-8 0 -13 6t-3 14l29 174h-605z" />
<glyph unicode="&#xad;" horiz-adv-x="333" d="M42 187l10 58h265l-10 -58h-265z" />
<glyph unicode="&#xae;" horiz-adv-x="683" d="M57 342q23 141 140 241t259 100q141 0 224 -100t60 -241q-23 -142 -140 -242t-258 -100q-142 0 -225 100t-60 242zM97 342q-21 -125 53 -213.5t199 -88.5t227.5 88.5t123.5 213.5q21 124 -52.5 212.5t-198.5 88.5t-228 -88t-124 -213zM192 160l3 17h13q30 0 37.5 5 t9.5 21l48 290q3 16 -2.5 21t-35.5 5h-13l2 17h173q60 0 97 -29.5t30 -69.5q-5 -31 -36.5 -55.5t-74.5 -34.5q51 -20 56 -64v-44q-1 -44 3.5 -61.5t22.5 -17.5q32 0 45 49q0 8 7 8t7 -9q-2 -11 -8 -23t-20.5 -25t-34.5 -13q-43 0 -65 24q-14 14 -15 33.5t5 44.5 q6 27 4.5 43.5t-13.5 30.5q-16 19 -48 19h-63l-23 -139q-2 -10 -0.5 -15.5t10 -8t29.5 -2.5h14l-3 -17l-81 1zM328 354h61q96 0 109 83q5 28 -1.5 46t-24.5 25t-32.5 9t-39.5 2q-27 0 -33 -1q-12 -2 -15 -21z" />
<glyph unicode="&#xaf;" d="M168 589l5 31h361l-5 -31h-361z" />
<glyph unicode="&#xb0;" horiz-adv-x="375" d="M140 544q10 58 57 98.5t105 40.5q57 0 91 -40.5t24 -98.5q-10 -57 -57 -97.5t-104 -40.5q-58 0 -92 40.5t-24 97.5zM180 544q-7 -41 17 -69.5t65 -28.5t74.5 29t40.5 69q7 41 -17 70t-65 29t-74.5 -29t-40.5 -70z" />
<glyph unicode="&#xb1;" horiz-adv-x="778" d="M59 20q4 20 37 20h280l45 273h-280q-10 0 -15.5 0.5t-10.5 5.5t-3 14q3 20 36 20h280l47 280q5 33 25 33t15 -33l-47 -280h279q10 0 15.5 -0.5t10.5 -5.5t4 -14q-4 -20 -37 -20h-279l-45 -273h279q10 0 15.5 -0.5t10.5 -5.5t3 -14q-3 -20 -36 -20h-599q-10 0 -15.5 0.5 t-10.5 5.5t-4 14z" />
<glyph unicode="&#xb2;" horiz-adv-x="359" d="M87 306q2 14 12 22l159 128q88 73 98 133q7 40 -13.5 69t-66.5 29q-31 0 -60.5 -16t-47.5 -45h9q19 0 27.5 -9t6.5 -22q-3 -17 -16.5 -24.5t-26.5 -7.5q-5 0 -11 1t-15 9.5t-6 23.5q6 42 50 75t103 33q66 0 103.5 -32.5t28.5 -83.5q-7 -42 -42.5 -73.5t-141.5 -101.5 l-87 -62h130q63 0 69 5q9 9 24 53h18l-37 -104h-267z" />
<glyph unicode="&#xb3;" horiz-adv-x="359" d="M95 387q3 18 16.5 26.5t29.5 8.5t26.5 -9t8.5 -25q-3 -17 -18.5 -26t-35.5 -7q14 -24 44.5 -35t59.5 -11q31 0 59.5 22.5t37.5 76.5q8 46 -9 73t-60 27h-31q-11 0 -14.5 1t-2.5 6t12 7q16 0 28 2q42 0 70 31q25 29 31 68q6 37 -12 52t-46 15q-67 0 -102 -37q45 0 40 -30 q-2 -13 -13.5 -21.5t-28.5 -8.5q-16 0 -24.5 8t-6.5 23q6 34 46.5 57.5t94.5 23.5t89.5 -23t29.5 -59t-39 -65t-80 -41q53 -10 80.5 -40t21.5 -69q-8 -47 -57.5 -81t-114.5 -34q-60 0 -98.5 27t-31.5 67z" />
<glyph unicode="&#xb4;" d="M276 528l146 153q14 17 32 17q14 0 23 -11t7 -25q-3 -18 -22 -30l-172 -122z" />
<glyph unicode="&#xb5;" horiz-adv-x="556" d="M0 -194l5 31q54 0 67 6.5t19 40.5l76 457q6 39 -4.5 48.5t-63.5 9.5l5 31l150 11l-55 -330q-3 -27 -4.5 -49t16.5 -36.5t57 -14.5q54 0 94 44t52 112l29 174q6 39 -4.5 48.5t-63.5 9.5l5 31l150 11l-59 -352q-7 -39 4 -48.5t64 -9.5l-5 -31l-147 -11l15 86h-1 q-55 -86 -142 -86q-49 0 -79 13l-19 -118q-6 -34 5 -40.5t65 -6.5l-5 -31l-113 3z" />
<glyph unicode="&#xb6;" horiz-adv-x="611" d="M133 463q16 95 100.5 163t188.5 68h243q10 0 15.5 -0.5t10.5 -5.5t3 -14q-3 -20 -36 -20h-50l-136 -815q-5 -33 -25 -33t-15 33l136 815h-70l-136 -815q-5 -33 -25 -33t-15 33l65 391q-50 2 -97 17t-87 42t-59.5 72.5t-10.5 101.5z" />
<glyph unicode="&#xb7;" horiz-adv-x="778" d="M393 342q4 22 22 37.5t40 15.5t35 -15.5t9 -37.5t-22 -37.5t-40 -15.5t-35 15.5t-9 37.5z" />
<glyph unicode="&#xb8;" horiz-adv-x="444" d="M56 -200l4 26h13h39.5t37.5 1.5t38 4t29 6.5t23 11.5t10 17.5q3 22 -17 31.5t-52 9.5l16 97h52l-12 -71q45 0 74 -17t23 -50q-3 -16 -14 -28t-33 -19t-41.5 -11.5t-53.5 -6t-53.5 -2t-56.5 -0.5h-26z" />
<glyph unicode="&#xb9;" horiz-adv-x="366" d="M119 306l3 18h23q45 0 57 5.5t15 23.5l52 311q-40 -16 -97 -16l3 19q86 0 138 38q12 0 14 -2.5t0 -12.5l-56 -337q-3 -18 6.5 -23.5t55.5 -5.5h23l-3 -18q-26 2 -117 2t-117 -2z" />
<glyph unicode="&#xba;" horiz-adv-x="419" d="M110 333q-15 0 -14 10q3 10 17 11h312q12 0 13 -8q-4 -11 -16 -13h-312zM114 542q11 66 73.5 114.5t140.5 48.5q76 0 122.5 -48t35.5 -115q-10 -66 -73 -112t-140 -46q-75 0 -122.5 45.5t-36.5 112.5zM184 547q-11 -68 5 -99q24 -46 88 -46q67 0 106 51q24 31 34 94 q12 65 -6 97q-24 46 -87 46q-61 0 -104 -47q-24 -29 -36 -96z" />
<glyph unicode="&#xbb;" horiz-adv-x="556" d="M114 12q48 122 132 230q-49 108 -56 229q0 5 4 8.5t8 3.5h2q8 0 8 -6q25 -132 104 -228q2 -2 2 -7q-2 -6 -4 -7q-112 -97 -180 -228q-4 -7 -10 -7h-2q-5 0 -7.5 4t-0.5 8zM281 12q48 122 132 230q-49 108 -56 229q0 5 3.5 8.5t8.5 3.5h2q8 0 8 -6q25 -132 104 -228 q2 -2 2 -7q-2 -6 -4 -7q-112 -97 -180 -228q-3 -7 -10 -7h-2q-5 0 -7.5 4t-0.5 8z" />
<glyph unicode="&#xbc;" horiz-adv-x="825" d="M119 306l3 18h23q45 0 57 5.5t15 23.5l52 311q-40 -16 -97 -16l3 19q86 0 138 38q12 0 14 -2.5t0 -12.5l-56 -337q-3 -18 6.5 -23.5t55.5 -5.5h23l-3 -18q-26 2 -117 2t-117 -2zM237 20q1 2 5 11l507 643q6 9 19 9q8 0 13 -6t4 -14q-1 -4 -5 -10l-507 -644q-9 -9 -19 -9 q-8 0 -13 6t-4 14zM459 99l3 19l268 281q7 7 15 7t9.5 -3t-0.5 -12l-45 -273h72l-3 -19h-72l-9 -52q-3 -11 -1 -17t13 -8.5t38 -2.5h15l-3 -19q-30 2 -98 2t-97 -2l3 19h15q38 0 47.5 5t12.5 23l9 52h-192zM482 118h176l37 223z" />
<glyph unicode="&#xbd;" horiz-adv-x="825" d="M119 306l3 18h23q45 0 57 5.5t15 23.5l52 311q-40 -16 -97 -16l3 19q86 0 138 38q12 0 14 -2.5t0 -12.5l-56 -337q-3 -18 6.5 -23.5t55.5 -5.5h23l-3 -18q-26 2 -117 2t-117 -2zM196 20q0 2 5 11l506 643q7 9 19 9q19 0 17 -20q-1 -4 -5 -10l-507 -644q-7 -9 -18 -9 q-19 0 -17 20zM474 0q2 15 12 22l159 129q87 71 97 132q7 40 -13 69t-66 29q-32 0 -61.5 -16t-46.5 -45h9q18 0 26.5 -9t6.5 -22q-3 -16 -16.5 -24t-25.5 -8q-5 0 -11 1t-15 9.5t-6 23.5q6 42 50 75.5t102 33.5q66 0 104 -33t29 -84q-7 -42 -42.5 -73.5t-142.5 -101.5 l-86 -62h130q63 0 69 5q6 7 24 53h18l-37 -104h-267z" />
<glyph unicode="&#xbe;" horiz-adv-x="825" d="M125 387q3 18 17 26.5t29 8.5q17 0 27 -9t8 -25q-3 -17 -18.5 -26t-34.5 -7q13 -24 43.5 -35t59.5 -11q31 0 59.5 22.5t37.5 76.5q8 46 -9 73t-60 27h-31q-10 0 -14 1t-3 6t12 7q18 0 28 2q42 0 70 31q27 30 32 68q6 36 -12.5 51.5t-46.5 15.5q-68 0 -101 -37 q44 0 39 -30q-2 -13 -13.5 -21.5t-27.5 -8.5t-25 8t-7 23q6 34 46.5 57.5t94.5 23.5t89.5 -23t29.5 -59t-39 -65t-80 -41q53 -10 80.5 -40t21.5 -69q-8 -47 -57.5 -81t-114.5 -34q-60 0 -98.5 27t-31.5 67zM237 20q1 2 5 11l507 643q6 9 19 9q8 0 13 -6t4 -14q-1 -4 -5 -10 l-507 -644q-9 -9 -19 -9q-8 0 -13 6t-4 14zM459 99l3 19l268 281q7 7 15 7t9.5 -3t-0.5 -12l-45 -273h72l-3 -19h-72l-9 -52q-3 -11 -1 -17t13 -8.5t38 -2.5h15l-3 -19q-30 2 -98 2t-97 -2l3 19h15q38 0 47.5 5t12.5 23l9 52h-192zM482 118h176l37 223z" />
<glyph unicode="&#xbf;" horiz-adv-x="472" d="M44 -70q11 62 69 106q117 88 143 237l2 16q2 15 5 19.5t11 4.5q12 0 11 -12l-4 -24q-25 -156 -113 -257q-12 -14 -17.5 -21.5t-12.5 -27t-12 -48.5q-3 -26 -5 -49.5t15.5 -40t57.5 -16.5q44 0 91 16.5t74 51.5q-26 -3 -38.5 11t-9.5 34q4 20 18.5 33t35.5 13 q19 0 30.5 -12t7.5 -36q-10 -59 -72 -96t-143 -37q-90 0 -121 40.5t-23 94.5zM244 447q3 22 21 37.5t40 15.5t35 -15.5t10 -37.5q-4 -22 -22 -37.5t-40 -15.5t-35 15.5t-9 37.5z" />
<glyph unicode="&#xc0;" horiz-adv-x="750" d="M32 0l5 31q90 2 123 67l307 598q6 12 11 16t16 4t14 -4t6 -16l112 -625q4 -25 18.5 -32.5t59.5 -7.5h18l-5 -31l-130 3q-108 0 -145 -3l5 31q83 0 88 30v14l-28 153h-247l-68 -131q-4 -8 -4 -15q-4 -21 13 -36t53 -15l-5 -31l-114 3zM276 259h225l-59 325zM382 867 q0 17 13 29.5t29 12.5q15 0 24 -12l124 -130l-18 -21l-154 94q-18 9 -18 27z" />
<glyph unicode="&#xc1;" horiz-adv-x="750" d="M32 0l5 31q90 2 123 67l307 598q6 12 11 16t16 4t14 -4t6 -16l112 -625q4 -25 18.5 -32.5t59.5 -7.5h18l-5 -31l-130 3q-108 0 -145 -3l5 31q83 0 88 30v14l-28 153h-247l-68 -131q-4 -8 -4 -15q-4 -21 13 -36t53 -15l-5 -31l-114 3zM276 259h225l-59 325zM434 767 l166 130q15 12 28 12q17 0 25.5 -13t2.5 -29q-6 -19 -26 -27l-186 -94z" />
<glyph unicode="&#xc2;" horiz-adv-x="750" d="M32 0l5 31q90 2 123 67l307 598q6 12 11 16t16 4t14 -4t6 -16l112 -625q4 -25 18.5 -32.5t59.5 -7.5h18l-5 -31l-130 3q-108 0 -145 -3l5 31q83 0 88 30v14l-28 153h-247l-68 -131q-4 -8 -4 -15q-4 -21 13 -36t53 -15l-5 -31l-114 3zM276 259h225l-59 325zM349 752 l171 117l131 -117l-14 -16l-129 66l-151 -66z" />
<glyph unicode="&#xc3;" horiz-adv-x="750" d="M32 0l5 31q90 2 123 67l307 598q6 12 11 16t16 4t14 -4t6 -16l112 -625q4 -25 18.5 -32.5t59.5 -7.5h18l-5 -31l-130 3q-108 0 -145 -3l5 31q83 0 88 30v14l-28 153h-247l-68 -131q-4 -8 -4 -15q-4 -21 13 -36t53 -15l-5 -31l-114 3zM276 259h225l-59 325zM334 751 q51 48 73 63t48 15q23 0 58 -23q40 -25 61 -25q20 0 42.5 12t35.5 24l12 12l14 -15q-39 -36 -52.5 -47t-32 -21t-36.5 -10q-23 0 -59 23q-38 25 -60 25q-20 0 -42.5 -12t-35.5 -24l-12 -12z" />
<glyph unicode="&#xc4;" horiz-adv-x="750" d="M32 0l5 31q90 2 123 67l307 598q6 12 11 16t16 4t14 -4t6 -16l112 -625q4 -25 18.5 -32.5t59.5 -7.5h18l-5 -31l-130 3q-108 0 -145 -3l5 31q83 0 88 30v14l-28 153h-247l-68 -131q-4 -8 -4 -15q-4 -21 13 -36t53 -15l-5 -31l-114 3zM276 259h225l-59 325zM353 784 q2 18 18 32.5t38 14.5q20 0 32 -14.5t9 -32.5q-3 -19 -19 -33.5t-38 -14.5q-20 0 -32 14.5t-8 33.5zM563 784q2 18 18 32.5t38 14.5q20 0 32 -14.5t9 -32.5q-3 -19 -19 -33.5t-38 -14.5q-20 0 -32 14.5t-8 33.5z" />
<glyph unicode="&#xc5;" horiz-adv-x="750" d="M32 0l5 31q90 2 123 67l307 598q6 12 11 16t16 4t14 -4t6 -16l112 -625q4 -25 18.5 -32.5t59.5 -7.5h18l-5 -31l-130 3q-108 0 -145 -3l5 31q83 0 88 30v14l-28 153h-247l-68 -131q-4 -8 -4 -15q-4 -21 13 -36t53 -15l-5 -31l-114 3zM276 259h225l-59 325zM413 805 q5 34 37.5 60.5t74.5 26.5q40 0 63 -26t17 -61q-6 -37 -38 -63t-74 -26q-39 0 -62.5 25.5t-17.5 63.5zM446 804q-10 -58 53 -58t73 58t-53 58t-73 -58z" />
<glyph unicode="&#xc6;" horiz-adv-x="903" d="M32 0l5 31q90 0 124 67l291 553q-6 0 -20 0.5t-20 0.5h-45l5 31h560l-10 -225h-25q3 51 0 87.5t-17 60.5t-44.5 35t-83.5 11h-95q-34 0 -42.5 -7t-13.5 -33l-45 -268h85q67 0 89.5 24.5t33.5 92.5h25l-44 -265h-25q11 68 -3 92.5t-81 24.5h-85l-40 -242q-5 -26 1.5 -33 t40.5 -7h95q31 0 56.5 3t46 12t35 17t28.5 26.5t22.5 31t20 40.5t17.5 44.5t18 52.5h25l-85 -258h-493l5 31q52 0 65.5 6.5t19.5 38.5l39 237h-161l-110 -210q-17 -28 -2.5 -49.5t59.5 -22.5l-5 -31l-114 3q-37 0 -103 -3zM323 344h150l44 260q0 9 1 18.5t-7.5 17.5t-27.5 8 z" />
<glyph unicode="&#xc7;" horiz-adv-x="722" d="M113 342q25 151 146 257t263 106q44 0 80.5 -16t51.5 -30t37 -40l63 74q10 12 18 12q7 0 8 -4.5t0 -15.5q-1 -2 -1 -4l-40 -237q-2 -16 -5 -20t-15 -4q-10 0 -11.5 2.5t-1.5 14.5q3 108 -46.5 172.5t-132.5 64.5q-24 0 -51.5 -5.5t-69.5 -26t-77 -54.5t-67 -98t-46 -149 q-13 -64 -8 -112.5t15.5 -83.5t32 -59.5t41.5 -39.5t45.5 -23t42.5 -11t33 -3q86 0 162 61t99 164q8 15 15 16q9 0 10.5 -5t-0.5 -12q-15 -90 -95.5 -168.5t-189.5 -85.5l-7 -45q45 0 74 -17t23 -50q-3 -16 -14 -28t-33 -19t-41.5 -11.5t-53.5 -6t-53.5 -2t-56.5 -0.5h-26 l4 26h13h39.5t37.5 1.5t38 4t29 6.5t23 11.5t10 17.5q3 22 -17 31.5t-52 9.5l12 72q-130 13 -204.5 115.5t-50.5 246.5z" />
<glyph unicode="&#xc8;" horiz-adv-x="681" d="M33 0l5 31h24q54 0 68 9t19 38l87 524q5 29 -6 38t-65 9h-24l5 31h563l-9 -225h-25q6 111 -24.5 152.5t-139.5 41.5h-129q-34 0 -42.5 -7t-12.5 -33l-40 -240h90q69 0 92.5 24t34.5 93h25l-44 -265h-25q11 68 -4.5 92.5t-84.5 24.5h-90l-44 -267q-5 -26 1.5 -33t40.5 -7 h133q51 0 88 9.5t62 25t45 47t32.5 62t30.5 83.5h25l-85 -258h-577zM347 867q0 17 12.5 29.5t29.5 12.5q15 0 24 -12l124 -130l-18 -21l-154 94q-18 9 -18 27z" />
<glyph unicode="&#xc9;" horiz-adv-x="681" d="M33 0l5 31h24q54 0 68 9t19 38l87 524q5 29 -6 38t-65 9h-24l5 31h563l-9 -225h-25q6 111 -24.5 152.5t-139.5 41.5h-129q-34 0 -42.5 -7t-12.5 -33l-40 -240h90q69 0 92.5 24t34.5 93h25l-44 -265h-25q11 68 -4.5 92.5t-84.5 24.5h-90l-44 -267q-5 -26 1.5 -33t40.5 -7 h133q51 0 88 9.5t62 25t45 47t32.5 62t30.5 83.5h25l-85 -258h-577zM399 767l166 130q15 12 28 12q17 0 25.5 -13t2.5 -29q-6 -19 -26 -27l-186 -94z" />
<glyph unicode="&#xca;" horiz-adv-x="681" d="M33 0l5 31h24q54 0 68 9t19 38l87 524q5 29 -6 38t-65 9h-24l5 31h563l-9 -225h-25q6 111 -24.5 152.5t-139.5 41.5h-129q-34 0 -42.5 -7t-12.5 -33l-40 -240h90q69 0 92.5 24t34.5 93h25l-44 -265h-25q11 68 -4.5 92.5t-84.5 24.5h-90l-44 -267q-5 -26 1.5 -33t40.5 -7 h133q51 0 88 9.5t62 25t45 47t32.5 62t30.5 83.5h25l-85 -258h-577zM314 752l171 117l131 -117l-14 -16l-129 66l-151 -66z" />
<glyph unicode="&#xcb;" horiz-adv-x="681" d="M33 0l5 31h24q54 0 68 9t19 38l87 524q5 29 -6 38t-65 9h-24l5 31h563l-9 -225h-25q6 111 -24.5 152.5t-139.5 41.5h-129q-34 0 -42.5 -7t-12.5 -33l-40 -240h90q69 0 92.5 24t34.5 93h25l-44 -265h-25q11 68 -4.5 92.5t-84.5 24.5h-90l-44 -267q-5 -26 1.5 -33t40.5 -7 h133q51 0 88 9.5t62 25t45 47t32.5 62t30.5 83.5h25l-85 -258h-577zM318 784q2 18 18 32.5t38 14.5q20 0 32 -14.5t9 -32.5q-3 -19 -19 -33.5t-38 -14.5q-20 0 -32 14.5t-8 33.5zM528 784q2 18 18 32.5t38 14.5q20 0 32 -14.5t9 -32.5q-3 -19 -19 -33.5t-38 -14.5 q-20 0 -32 14.5t-8 33.5z" />
<glyph unicode="&#xcc;" horiz-adv-x="361" d="M28 0l5 31h26q56 0 70.5 9t19.5 38l88 527q5 29 -6.5 38t-67.5 9h-26l5 31q34 -3 152 -3q117 0 153 3l-5 -31h-26q-56 0 -70.5 -9t-19.5 -38l-88 -527q-5 -29 6.5 -38t67.5 -9h26l-5 -31q-34 3 -152 3q-117 0 -153 -3zM188 867q0 17 13 29.5t29 12.5q15 0 24 -12 l124 -130l-18 -21l-154 94q-18 9 -18 27z" />
<glyph unicode="&#xcd;" horiz-adv-x="361" d="M28 0l5 31h26q56 0 70.5 9t19.5 38l88 527q5 29 -6.5 38t-67.5 9h-26l5 31q34 -3 152 -3q117 0 153 3l-5 -31h-26q-56 0 -70.5 -9t-19.5 -38l-88 -527q-5 -29 6.5 -38t67.5 -9h26l-5 -31q-34 3 -152 3q-117 0 -153 -3zM240 767l166 130q15 12 28 12q17 0 25.5 -13 t2.5 -29q-6 -19 -26 -27l-186 -94z" />
<glyph unicode="&#xce;" horiz-adv-x="361" d="M28 0l5 31h26q56 0 70.5 9t19.5 38l88 527q5 29 -6.5 38t-67.5 9h-26l5 31q34 -3 152 -3q117 0 153 3l-5 -31h-26q-56 0 -70.5 -9t-19.5 -38l-88 -527q-5 -29 6.5 -38t67.5 -9h26l-5 -31q-34 3 -152 3q-117 0 -153 -3zM155 752l171 117l131 -117l-14 -16l-129 66 l-151 -66z" />
<glyph unicode="&#xcf;" horiz-adv-x="361" d="M28 0l5 31h26q56 0 70.5 9t19.5 38l88 527q5 29 -6.5 38t-67.5 9h-26l5 31q34 -3 152 -3q117 0 153 3l-5 -31h-26q-56 0 -70.5 -9t-19.5 -38l-88 -527q-5 -29 6.5 -38t67.5 -9h26l-5 -31q-34 3 -152 3q-117 0 -153 -3zM159 784q2 18 18 32.5t38 14.5q20 0 32 -14.5 t9 -32.5q-3 -19 -19 -33.5t-38 -14.5q-20 0 -32 14.5t-8 33.5zM369 784q2 18 18 32.5t38 14.5q20 0 32 -14.5t9 -32.5q-3 -19 -19 -33.5t-38 -14.5q-20 0 -32 14.5t-8 33.5z" />
<glyph unicode="&#xd0;" horiz-adv-x="764" d="M35 0l5 31h24q54 0 68 9t19 38l42 249h-103l5 30h103l41 248q5 29 -6 38t-65 9h-24l5 31h366q128 0 200 -102t48 -245q-23 -140 -129 -238t-233 -98h-366zM236 71q-5 -26 1.5 -33t40.5 -7h101q66 0 115.5 27t76.5 58q68 74 92 220q25 151 -15 223q-51 93 -166 93h-100 q-34 0 -42.5 -7t-13.5 -33l-42 -255h158l-5 -30h-158z" />
<glyph unicode="&#xd1;" horiz-adv-x="750" d="M33 0l5 31q36 0 60 7t35 20.5t14.5 22.5t6.5 24l87 522q2 14 -1 17.5t-20 5.5q-28 2 -49 2h-29l5 31h170q14 0 18 -2t9 -11l266 -519l71 427q4 10 2.5 23t-7 24t-27.5 19t-58 8l5 31l116 -3l118 3l-5 -31q-36 0 -60 -7t-35 -20.5t-14.5 -22.5t-6.5 -24l-92 -552 q-2 -11 -3 -15.5t-4.5 -7.5t-10.5 -3t-15 13l-308 600q-3 5 -8 12l-86 -520q-4 -10 -2.5 -23t7 -24t27.5 -19t58 -8l-5 -31l-116 3zM334 751q51 48 73 63t48 15q23 0 58 -23q40 -25 61 -25q20 0 42.5 12t35.5 24l12 12l14 -15q-39 -36 -52.5 -47t-32 -21t-36.5 -10 q-23 0 -59 23q-38 25 -60 25q-20 0 -42.5 -12t-35.5 -24l-12 -12z" />
<glyph unicode="&#xd2;" horiz-adv-x="778" d="M113 339q25 153 141 259.5t252 106.5q137 0 217 -107t55 -259q-25 -151 -141 -256t-253 -105q-135 0 -216 104.5t-55 256.5zM218 353q-14 -98 -5.5 -164.5t39 -107.5t65 -59t73.5 -18q38 0 78.5 18t82.5 56t76 109.5t50 165.5q14 76 6.5 132t-25 93.5t-46 60t-56 32 t-55.5 9.5q-35 0 -74 -15.5t-81.5 -50t-77.5 -102t-50 -159.5zM396 867q0 17 13 29.5t29 12.5q15 0 24 -12l124 -130l-18 -21l-154 94q-18 9 -18 27z" />
<glyph unicode="&#xd3;" horiz-adv-x="778" d="M113 339q25 153 141 259.5t252 106.5q137 0 217 -107t55 -259q-25 -151 -141 -256t-253 -105q-135 0 -216 104.5t-55 256.5zM218 353q-14 -98 -5.5 -164.5t39 -107.5t65 -59t73.5 -18q38 0 78.5 18t82.5 56t76 109.5t50 165.5q14 76 6.5 132t-25 93.5t-46 60t-56 32 t-55.5 9.5q-35 0 -74 -15.5t-81.5 -50t-77.5 -102t-50 -159.5zM448 767l166 130q15 12 28 12q17 0 25.5 -13t2.5 -29q-6 -19 -26 -27l-186 -94z" />
<glyph unicode="&#xd4;" horiz-adv-x="778" d="M113 339q25 153 141 259.5t252 106.5q137 0 217 -107t55 -259q-25 -151 -141 -256t-253 -105q-135 0 -216 104.5t-55 256.5zM218 353q-14 -98 -5.5 -164.5t39 -107.5t65 -59t73.5 -18q38 0 78.5 18t82.5 56t76 109.5t50 165.5q14 76 6.5 132t-25 93.5t-46 60t-56 32 t-55.5 9.5q-35 0 -74 -15.5t-81.5 -50t-77.5 -102t-50 -159.5zM363 752l171 117l131 -117l-14 -16l-129 66l-151 -66z" />
<glyph unicode="&#xd5;" horiz-adv-x="778" d="M113 339q25 153 141 259.5t252 106.5q137 0 217 -107t55 -259q-25 -151 -141 -256t-253 -105q-135 0 -216 104.5t-55 256.5zM218 353q-14 -98 -5.5 -164.5t39 -107.5t65 -59t73.5 -18q38 0 78.5 18t82.5 56t76 109.5t50 165.5q14 76 6.5 132t-25 93.5t-46 60t-56 32 t-55.5 9.5q-35 0 -74 -15.5t-81.5 -50t-77.5 -102t-50 -159.5zM348 751q51 48 73 63t48 15q23 0 58 -23q40 -25 61 -25q20 0 42.5 12t35.5 24l12 12l14 -15q-39 -36 -52.5 -47t-32 -21t-36.5 -10q-23 0 -59 23q-38 25 -60 25q-20 0 -42.5 -12t-35.5 -24l-12 -12z" />
<glyph unicode="&#xd6;" horiz-adv-x="778" d="M113 339q25 153 141 259.5t252 106.5q137 0 217 -107t55 -259q-25 -151 -141 -256t-253 -105q-135 0 -216 104.5t-55 256.5zM218 353q-14 -98 -5.5 -164.5t39 -107.5t65 -59t73.5 -18q38 0 78.5 18t82.5 56t76 109.5t50 165.5q14 76 6.5 132t-25 93.5t-46 60t-56 32 t-55.5 9.5q-35 0 -74 -15.5t-81.5 -50t-77.5 -102t-50 -159.5zM367 784q2 18 18 32.5t38 14.5q20 0 32 -14.5t9 -32.5q-3 -19 -19 -33.5t-38 -14.5q-20 0 -32 14.5t-8 33.5zM577 784q2 18 18 32.5t38 14.5q20 0 32 -14.5t9 -32.5q-3 -19 -19 -33.5t-38 -14.5q-20 0 -32 14.5 t-8 33.5z" />
<glyph unicode="&#xd7;" horiz-adv-x="778" d="M156 15q-12 14 16 37l231 198l-165 198q-21 23 -4 38q17 14 37 -9l165 -198l229 197q27 23 40 9q11 -13 -16 -37l-230 -198l165 -198q19 -23 3 -37q-17 -14 -36 9l-165 198l-231 -198q-27 -23 -39 -9z" />
<glyph unicode="&#xd8;" horiz-adv-x="778" d="M105 -42q17 19 47.5 55.5t37.5 44.5q-24 23 -43.5 56t-32.5 94.5t-1 130.5q25 153 141 259.5t252 106.5q43 0 83.5 -13.5t52 -21t35.5 -23.5l6 -5l84 97l19 -14l-86 -101q105 -117 78 -285q-25 -151 -141 -256t-253 -105q-100 0 -177 62l-84 -96zM202 339 q-11 -61 -10.5 -108.5t8 -77t22.5 -56.5l433 510q-57 76 -153 76q-55 0 -111 -28.5t-99 -82.5q-66 -83 -90 -233zM236 76q26 -37 66 -56.5t87 -19.5q27 0 54.5 7t53 20t49.5 31.5t45 41.5q70 83 98 239q26 166 -21 247z" />
<glyph unicode="&#xd9;" horiz-adv-x="750" d="M142 652l5 31q34 -3 147 -3q112 0 148 3l-5 -31h-24q-54 0 -68 -9t-19 -38l-64 -381q-11 -67 0 -113t36.5 -66.5t48 -28t45.5 -7.5q76 0 144 60.5t85 161.5l57 347q4 10 2.5 23t-7 24t-27.5 19t-58 8l5 31l118 -3l119 3l-5 -31q-36 0 -60 -7t-35 -20.5t-14.5 -23.5 t-6.5 -27l-54 -320q-7 -45 -14 -69q-28 -87 -100 -147t-157 -60q-103 0 -165 72.5t-45 177.5l63 377q5 29 -6 38t-65 9h-24zM405 867q0 17 12.5 29.5t29.5 12.5q15 0 24 -12l124 -130l-18 -21l-154 94q-18 9 -18 27z" />
<glyph unicode="&#xda;" horiz-adv-x="750" d="M142 652l5 31q34 -3 147 -3q112 0 148 3l-5 -31h-24q-54 0 -68 -9t-19 -38l-64 -381q-11 -67 0 -113t36.5 -66.5t48 -28t45.5 -7.5q76 0 144 60.5t85 161.5l57 347q4 10 2.5 23t-7 24t-27.5 19t-58 8l5 31l118 -3l119 3l-5 -31q-36 0 -60 -7t-35 -20.5t-14.5 -23.5 t-6.5 -27l-54 -320q-7 -45 -14 -69q-28 -87 -100 -147t-157 -60q-103 0 -165 72.5t-45 177.5l63 377q5 29 -6 38t-65 9h-24zM457 767l166 130q15 12 28 12q17 0 25.5 -13t2.5 -29q-6 -19 -26 -27l-186 -94z" />
<glyph unicode="&#xdb;" horiz-adv-x="750" d="M142 652l5 31q34 -3 147 -3q112 0 148 3l-5 -31h-24q-54 0 -68 -9t-19 -38l-64 -381q-11 -67 0 -113t36.5 -66.5t48 -28t45.5 -7.5q76 0 144 60.5t85 161.5l57 347q4 10 2.5 23t-7 24t-27.5 19t-58 8l5 31l118 -3l119 3l-5 -31q-36 0 -60 -7t-35 -20.5t-14.5 -23.5 t-6.5 -27l-54 -320q-7 -45 -14 -69q-28 -87 -100 -147t-157 -60q-103 0 -165 72.5t-45 177.5l63 377q5 29 -6 38t-65 9h-24zM372 752l171 117l131 -117l-14 -16l-129 66l-151 -66z" />
<glyph unicode="&#xdc;" horiz-adv-x="750" d="M142 652l5 31q34 -3 147 -3q112 0 148 3l-5 -31h-24q-54 0 -68 -9t-19 -38l-64 -381q-11 -67 0 -113t36.5 -66.5t48 -28t45.5 -7.5q76 0 144 60.5t85 161.5l57 347q4 10 2.5 23t-7 24t-27.5 19t-58 8l5 31l118 -3l119 3l-5 -31q-36 0 -60 -7t-35 -20.5t-14.5 -23.5 t-6.5 -27l-54 -320q-7 -45 -14 -69q-28 -87 -100 -147t-157 -60q-103 0 -165 72.5t-45 177.5l63 377q5 29 -6 38t-65 9h-24zM376 784q2 18 18 32.5t38 14.5q20 0 32 -14.5t9 -32.5q-3 -19 -19 -33.5t-38 -14.5q-20 0 -32 14.5t-8 33.5zM586 784q2 18 18 32.5t38 14.5 q20 0 32 -14.5t9 -32.5q-3 -19 -19 -33.5t-38 -14.5q-20 0 -32 14.5t-8 33.5z" />
<glyph unicode="&#xdd;" horiz-adv-x="750" d="M120 652l5 31l129 -3q112 0 149 3l-5 -31q-37 0 -54.5 -5t-19.5 -20q-2 -8 4 -17l132 -295l209 268q12 15 15 30t-9 27t-41 12l5 31l114 -3q53 0 99 3l-5 -31q-89 0 -139 -65l-245 -314l-33 -193q-5 -31 6 -40t66 -9h23l-5 -31q-35 3 -145 3t-147 -3l5 31h24q54 0 68 9 t19 38l33 195l-153 342q-10 22 -24.5 29.5t-61.5 7.5h-18zM434 767l166 130q15 12 28 12q17 0 25.5 -13t2.5 -29q-6 -19 -26 -27l-186 -94z" />
<glyph unicode="&#xde;" horiz-adv-x="681" d="M28 0l5 31h26q56 0 70.5 9t19.5 38l88 527q5 29 -6.5 38t-67.5 9h-26l5 31q34 -3 152 -3q117 0 153 3l-5 -31h-26q-56 0 -70.5 -9t-19.5 -38l-13 -80h163q101 0 159 -55.5t46 -130.5q-13 -74 -90.5 -127.5t-168.5 -53.5h-171l-13 -80q-5 -29 6.5 -38t67.5 -9h26l-5 -31 q-34 3 -152 3q-117 0 -153 -3zM255 187h138q45 0 79.5 12.5t52.5 28t30.5 40.5t15.5 39t7 35q3 15 4 24t1 27.5t-3.5 30.5t-13 27t-24 24t-39.5 15.5t-58 6.5h-89q-34 0 -42.5 -7t-13.5 -33z" />
<glyph unicode="&#xdf;" d="M28 0l5 31q53 0 66.5 6.5t19.5 38.5l54 324h-78l5 31h78l21 125q11 70 69 109.5t122 39.5q73 0 114.5 -42t32.5 -100q-8 -46 -49 -86t-108 -58q43 -19 71.5 -50.5t38 -65t13.5 -68.5t-3 -61q-14 -81 -76 -133t-130 -52q-42 0 -64.5 22.5t-17.5 53.5q3 18 15.5 27.5 t26.5 9.5q15 0 24 -10t6 -26q-5 -30 -36 -36q17 -19 47 -19q38 0 76.5 38t53.5 124q8 39 5 79.5t-14 74t-40 56t-71 26.5q-4 0 -5.5 3t-1.5 6v2q2 9 18 11q63 6 100 43t46 90q10 60 -14.5 89.5t-61.5 29.5q-8 0 -18.5 -2t-27 -9.5t-30.5 -20t-27 -37t-18 -56.5l-93 -558 q-17 3 -45 3z" />
<glyph unicode="&#xe0;" d="M58 95q13 84 122 130q65 29 190 36l6 37q10 62 -16.5 95t-68.5 33q-73 0 -116 -46q30 -1 38.5 -16t5.5 -30q-4 -20 -18.5 -33t-35.5 -13q-20 0 -31 12.5t-7 34.5q8 49 57.5 81t112.5 32q81 0 128 -55q19 -25 21.5 -57t-5.5 -61l-33 -200q0 -4 -1 -15t6.5 -23t22.5 -12 q36 0 47 64l9 56h25l-9 -56q-6 -37 -27 -60t-38.5 -29t-32.5 -6q-33 0 -49.5 24.5t-14.5 57.5q-22 -38 -60.5 -62.5t-85.5 -24.5q-59 0 -105 25.5t-37 80.5zM135 96q-6 -37 16.5 -61t59.5 -24q42 0 85 32.5t53 96.5l17 100q-112 -4 -167 -48t-64 -96zM236 662q2 14 15 25 t27 11q20 0 28 -17l94 -153l-20 -18l-132 122q-15 15 -12 30z" />
<glyph unicode="&#xe1;" d="M58 95q13 84 122 130q65 29 190 36l6 37q10 62 -16.5 95t-68.5 33q-73 0 -116 -46q30 -1 38.5 -16t5.5 -30q-4 -20 -18.5 -33t-35.5 -13q-20 0 -31 12.5t-7 34.5q8 49 57.5 81t112.5 32q81 0 128 -55q19 -25 21.5 -57t-5.5 -61l-33 -200q0 -4 -1 -15t6.5 -23t22.5 -12 q36 0 47 64l9 56h25l-9 -56q-6 -37 -27 -60t-38.5 -29t-32.5 -6q-33 0 -49.5 24.5t-14.5 57.5q-22 -38 -60.5 -62.5t-85.5 -24.5q-59 0 -105 25.5t-37 80.5zM135 96q-6 -37 16.5 -61t59.5 -24q42 0 85 32.5t53 96.5l17 100q-112 -4 -167 -48t-64 -96zM276 528l146 153 q14 17 32 17q14 0 23 -11t7 -25q-3 -18 -22 -30l-172 -122z" />
<glyph unicode="&#xe2;" d="M58 95q13 84 122 130q65 29 190 36l6 37q10 62 -16.5 95t-68.5 33q-73 0 -116 -46q30 -1 38.5 -16t5.5 -30q-4 -20 -18.5 -33t-35.5 -13q-20 0 -31 12.5t-7 34.5q8 49 57.5 81t112.5 32q81 0 128 -55q19 -25 21.5 -57t-5.5 -61l-33 -200q0 -4 -1 -15t6.5 -23t22.5 -12 q36 0 47 64l9 56h25l-9 -56q-6 -37 -27 -60t-38.5 -29t-32.5 -6q-33 0 -49.5 24.5t-14.5 57.5q-22 -38 -60.5 -62.5t-85.5 -24.5q-59 0 -105 25.5t-37 80.5zM135 96q-6 -37 16.5 -61t59.5 -24q42 0 85 32.5t53 96.5l17 100q-112 -4 -167 -48t-64 -96zM186 530l179 162 l125 -162l-15 -14l-121 108l-157 -108z" />
<glyph unicode="&#xe3;" d="M58 95q13 84 122 130q65 29 190 36l6 37q10 62 -16.5 95t-68.5 33q-73 0 -116 -46q30 -1 38.5 -16t5.5 -30q-4 -20 -18.5 -33t-35.5 -13q-20 0 -31 12.5t-7 34.5q8 49 57.5 81t112.5 32q81 0 128 -55q19 -25 21.5 -57t-5.5 -61l-33 -200q0 -4 -1 -15t6.5 -23t22.5 -12 q36 0 47 64l9 56h25l-9 -56q-6 -37 -27 -60t-38.5 -29t-32.5 -6q-33 0 -49.5 24.5t-14.5 57.5q-22 -38 -60.5 -62.5t-85.5 -24.5q-59 0 -105 25.5t-37 80.5zM135 96q-6 -37 16.5 -61t59.5 -24q42 0 85 32.5t53 96.5l17 100q-112 -4 -167 -48t-64 -96zM180 573q51 48 73 63 t48 15q22 0 58 -23q37 -25 61 -25q20 0 42.5 12t35.5 24l12 12l13 -15q-51 -48 -73 -63t-48 -15q-24 0 -58 23q-38 25 -61 25q-20 0 -42.5 -12t-34.5 -24l-13 -12z" />
<glyph unicode="&#xe4;" d="M58 95q13 84 122 130q65 29 190 36l6 37q10 62 -16.5 95t-68.5 33q-73 0 -116 -46q30 -1 38.5 -16t5.5 -30q-4 -20 -18.5 -33t-35.5 -13q-20 0 -31 12.5t-7 34.5q8 49 57.5 81t112.5 32q81 0 128 -55q19 -25 21.5 -57t-5.5 -61l-33 -200q0 -4 -1 -15t6.5 -23t22.5 -12 q36 0 47 64l9 56h25l-9 -56q-6 -37 -27 -60t-38.5 -29t-32.5 -6q-33 0 -49.5 24.5t-14.5 57.5q-22 -38 -60.5 -62.5t-85.5 -24.5q-59 0 -105 25.5t-37 80.5zM135 96q-6 -37 16.5 -61t59.5 -24q42 0 85 32.5t53 96.5l17 100q-112 -4 -167 -48t-64 -96zM214 605q3 18 19 32.5 t38 14.5q20 0 31.5 -14.5t8.5 -32.5q-3 -19 -19 -33.5t-38 -14.5q-20 0 -31.5 14.5t-8.5 33.5zM392 605q3 18 19 32.5t38 14.5q20 0 31.5 -14.5t8.5 -32.5q-3 -19 -19 -33.5t-38 -14.5q-20 0 -31.5 14.5t-8.5 33.5z" />
<glyph unicode="&#xe5;" d="M58 95q13 84 122 130q65 29 190 36l6 37q10 62 -16.5 95t-68.5 33q-73 0 -116 -46q30 -1 38.5 -16t5.5 -30q-4 -20 -18.5 -33t-35.5 -13q-20 0 -31 12.5t-7 34.5q8 49 57.5 81t112.5 32q81 0 128 -55q19 -25 21.5 -57t-5.5 -61l-33 -200q0 -4 -1 -15t6.5 -23t22.5 -12 q36 0 47 64l9 56h25l-9 -56q-6 -37 -27 -60t-38.5 -29t-32.5 -6q-33 0 -49.5 24.5t-14.5 57.5q-22 -38 -60.5 -62.5t-85.5 -24.5q-59 0 -105 25.5t-37 80.5zM135 96q-6 -37 16.5 -61t59.5 -24q42 0 85 32.5t53 96.5l17 100q-112 -4 -167 -48t-64 -96zM257 618 q5 34 37.5 60.5t74.5 26.5q40 0 63 -26t17 -61q-6 -37 -38 -63t-74 -26q-39 0 -62.5 25.5t-17.5 63.5zM290 617q-10 -58 53 -58t73 58t-53 58t-73 -58z" />
<glyph unicode="&#xe6;" horiz-adv-x="722" d="M60 92q12 71 98.5 114.5t209.5 43.5l8 48q10 61 -16.5 94.5t-68.5 33.5q-71 0 -116 -46q30 -1 38.5 -16t5.5 -30q-4 -20 -18.5 -33t-35.5 -13q-20 0 -31 12.5t-7 34.5q8 49 58 81t112 32q48 0 86 -20.5t54 -56.5q77 77 164 77q79 0 114 -55t20 -141q-2 -15 -6.5 -18 t-21.5 -3h-273q-6 -35 -6 -64.5t4 -50.5t12 -37.5t17 -27t21 -18.5t21 -11.5t19 -5.5t14 -2h8q44 0 82.5 28.5t57.5 68.5q4 9 6 12.5t4.5 5.5t7.5 2q13 0 11 -12q-1 -9 -13.5 -28.5t-33.5 -43t-56 -41t-74 -17.5q-103 0 -152 89q-25 -38 -74 -63.5t-108 -25.5q-38 0 -70 8.5 t-55 33t-17 61.5zM137 92q-5 -35 16.5 -58t57.5 -23q53 0 97 36t52 85q2 7 1 22q-4 32 3 75q-110 -4 -164.5 -45t-62.5 -92zM438 252h231q22 174 -73 174q-16 0 -35.5 -7t-43.5 -24.5t-45.5 -54.5t-33.5 -88z" />
<glyph unicode="&#xe7;" horiz-adv-x="444" d="M70 216q16 95 90 163.5t166 68.5q61 0 102 -29t33 -78q-4 -22 -19 -34.5t-35 -12.5q-33 0 -39 30q-6 31 22 51q14 10 33 11q-30 37 -100 37q-51 0 -101 -48t-69 -157q-17 -108 19 -156t88 -48q98 0 149 105q5 10 15 10q3 0 5 -0.5t4.5 -2.5t1.5 -7q-1 -4 -6.5 -15.5 t-19.5 -30t-32 -35.5t-47 -31t-62 -17l-9 -56q45 0 74 -17t23 -50q-3 -16 -14 -28t-33 -19t-41.5 -11.5t-53.5 -6t-53.5 -2t-56.5 -0.5h-26l4 26h13h39.5t37.5 1.5t38 4t29 6.5t23 11.5t10 17.5q3 22 -17 31.5t-52 9.5l13 83q-76 12 -118 75.5t-28 149.5z" />
<glyph unicode="&#xe8;" horiz-adv-x="444" d="M65 220q16 94 87.5 161t158.5 67q88 0 124 -57.5t22 -138.5q-2 -15 -6.5 -18t-21.5 -3h-279q-17 -102 5 -150q13 -30 39 -48.5t62 -18.5q10 0 22 2t37 10.5t50.5 31.5t43.5 59q5 14 15 14q13 0 11 -12q-1 -9 -14 -28.5t-35 -43t-60 -41t-80 -17.5q-89 0 -143.5 66.5 t-37.5 164.5zM154 252h237q3 15 4 33.5t-1.5 44.5t-10.5 46.5t-27.5 35t-48.5 14.5q-16 0 -34.5 -7t-42.5 -23.5t-44.5 -54t-31.5 -89.5zM208 662q2 14 15 25t27 11q20 0 28 -17l94 -153l-20 -18l-132 122q-15 15 -12 30z" />
<glyph unicode="&#xe9;" horiz-adv-x="444" d="M65 220q16 94 87.5 161t158.5 67q88 0 124 -57.5t22 -138.5q-2 -15 -6.5 -18t-21.5 -3h-279q-17 -102 5 -150q13 -30 39 -48.5t62 -18.5q10 0 22 2t37 10.5t50.5 31.5t43.5 59q5 14 15 14q13 0 11 -12q-1 -9 -14 -28.5t-35 -43t-60 -41t-80 -17.5q-89 0 -143.5 66.5 t-37.5 164.5zM154 252h237q3 15 4 33.5t-1.5 44.5t-10.5 46.5t-27.5 35t-48.5 14.5q-16 0 -34.5 -7t-42.5 -23.5t-44.5 -54t-31.5 -89.5zM248 528l146 153q14 17 32 17q14 0 23 -11t7 -25q-3 -18 -22 -30l-172 -122z" />
<glyph unicode="&#xea;" horiz-adv-x="444" d="M65 220q16 94 87.5 161t158.5 67q88 0 124 -57.5t22 -138.5q-2 -15 -6.5 -18t-21.5 -3h-279q-17 -102 5 -150q13 -30 39 -48.5t62 -18.5q10 0 22 2t37 10.5t50.5 31.5t43.5 59q5 14 15 14q13 0 11 -12q-1 -9 -14 -28.5t-35 -43t-60 -41t-80 -17.5q-89 0 -143.5 66.5 t-37.5 164.5zM154 252h237q3 15 4 33.5t-1.5 44.5t-10.5 46.5t-27.5 35t-48.5 14.5q-16 0 -34.5 -7t-42.5 -23.5t-44.5 -54t-31.5 -89.5zM158 530l179 162l125 -162l-15 -14l-121 108l-157 -108z" />
<glyph unicode="&#xeb;" horiz-adv-x="444" d="M65 220q16 94 87.5 161t158.5 67q88 0 124 -57.5t22 -138.5q-2 -15 -6.5 -18t-21.5 -3h-279q-17 -102 5 -150q13 -30 39 -48.5t62 -18.5q10 0 22 2t37 10.5t50.5 31.5t43.5 59q5 14 15 14q13 0 11 -12q-1 -9 -14 -28.5t-35 -43t-60 -41t-80 -17.5q-89 0 -143.5 66.5 t-37.5 164.5zM154 252h237q3 15 4 33.5t-1.5 44.5t-10.5 46.5t-27.5 35t-48.5 14.5q-16 0 -34.5 -7t-42.5 -23.5t-44.5 -54t-31.5 -89.5zM186 605q3 18 19 32.5t38 14.5q20 0 31.5 -14.5t8.5 -32.5q-3 -19 -19 -33.5t-38 -14.5q-20 0 -31.5 14.5t-8.5 33.5zM364 605 q3 18 19 32.5t38 14.5q20 0 31.5 -14.5t8.5 -32.5q-3 -19 -19 -33.5t-38 -14.5q-20 0 -31.5 14.5t-8.5 33.5z" />
<glyph unicode="&#xec;" horiz-adv-x="278" d="M33 0l5 31q53 0 66.5 6.5t19.5 38.5l45 269q6 37 -5 46t-60 9l5 31l142 11l-61 -367q-5 -30 4 -37t58 -7l-5 -31q-102 3 -103 3zM125 662q2 14 15.5 25t26.5 11q19 0 28 -17l94 -153l-20 -18l-132 122q-15 15 -12 30z" />
<glyph unicode="&#xed;" horiz-adv-x="278" d="M33 0l5 31q53 0 66.5 6.5t19.5 38.5l45 269q6 37 -5 46t-60 9l5 31l142 11l-61 -367q-5 -30 4 -37t58 -7l-5 -31q-102 3 -103 3zM165 528l146 153q14 17 32 17q13 0 22.5 -11t7.5 -25q-3 -18 -22 -30l-172 -122z" />
<glyph unicode="&#xee;" horiz-adv-x="278" d="M33 0l5 31q53 0 66.5 6.5t19.5 38.5l45 269q6 37 -5 46t-60 9l5 31l142 11l-61 -367q-5 -30 4 -37t58 -7l-5 -31q-102 3 -103 3zM75 530l179 162l125 -162l-15 -14l-121 108l-157 -108z" />
<glyph unicode="&#xef;" horiz-adv-x="278" d="M33 0l5 31q53 0 66.5 6.5t19.5 38.5l45 269q6 37 -5 46t-60 9l5 31l142 11l-61 -367q-5 -30 4 -37t58 -7l-5 -31q-102 3 -103 3zM103 605q3 18 19 32.5t38 14.5q20 0 31.5 -14.5t8.5 -32.5q-3 -19 -19 -33.5t-38 -14.5q-20 0 -31.5 14.5t-8.5 33.5zM281 605q3 18 19 32.5 t38 14.5q20 0 31.5 -14.5t8.5 -32.5q-3 -19 -19 -33.5t-38 -14.5q-20 0 -31.5 14.5t-8.5 33.5z" />
<glyph unicode="&#xf0;" d="M64 214q16 95 92 164.5t169 69.5q83 0 138 -61q16 153 -15 222l-83 -61l-15 23l84 62q-33 44 -96 44l5 30q79 0 123 -50l87 64l16 -22l-86 -64q74 -118 24 -421q-15 -89 -90 -157t-170 -68q-89 0 -144 65t-39 160zM148 222q-16 -97 2 -141q28 -67 102 -67q37 0 71.5 20 t57.5 54q29 44 44 134q15 97 -3 139q-29 65 -102 65q-32 0 -66 -17t-59 -50q-30 -43 -47 -137z" />
<glyph unicode="&#xf1;" horiz-adv-x="556" d="M32 0l5 31q53 0 66.5 6.5t19.5 38.5l44 268q7 37 -4.5 46.5t-63.5 9.5l5 31l143 11l-18 -105q66 105 166 105q73 0 99 -37q12 -18 15 -39.5t1 -41t-11 -72.5l-32 -191q-3 -21 12.5 -25.5t60.5 -4.5l-5 -31l-111 3l-114 -3l5 31q53 0 66.5 6.5t19.5 38.5l39 233 q18 111 -56 111q-52 0 -100.5 -43.5t-61.5 -116.5l-30 -184q-6 -32 5.5 -38.5t64.5 -6.5l-5 -31l-111 3zM208 573q51 48 73 63t48 15q22 0 58 -23q37 -25 61 -25q20 0 42.5 12t35.5 24l12 12l13 -15q-51 -48 -73 -63t-48 -15q-24 0 -58 23q-38 25 -61 25q-20 0 -42.5 -12 t-34.5 -24l-13 -12z" />
<glyph unicode="&#xf2;" d="M64 214q16 95 92 164.5t169 69.5q91 0 144.5 -69t37.5 -165q-16 -94 -92 -159.5t-168 -65.5q-89 0 -144 65t-39 160zM148 222q-16 -97 2 -141q28 -67 102 -67q37 0 71.5 20t57.5 54q29 44 44 134q15 97 -3 139q-29 65 -102 65q-32 0 -66 -17t-59 -50q-30 -43 -47 -137z M236 662q2 14 15 25t27 11q20 0 28 -17l94 -153l-20 -18l-132 122q-15 15 -12 30z" />
<glyph unicode="&#xf3;" d="M64 214q16 95 92 164.5t169 69.5q91 0 144.5 -69t37.5 -165q-16 -94 -92 -159.5t-168 -65.5q-89 0 -144 65t-39 160zM148 222q-16 -97 2 -141q28 -67 102 -67q37 0 71.5 20t57.5 54q29 44 44 134q15 97 -3 139q-29 65 -102 65q-32 0 -66 -17t-59 -50q-30 -43 -47 -137z M276 528l146 153q14 17 32 17q14 0 23 -11t7 -25q-3 -18 -22 -30l-172 -122z" />
<glyph unicode="&#xf4;" d="M64 214q16 95 92 164.5t169 69.5q91 0 144.5 -69t37.5 -165q-16 -94 -92 -159.5t-168 -65.5q-89 0 -144 65t-39 160zM148 222q-16 -97 2 -141q28 -67 102 -67q37 0 71.5 20t57.5 54q29 44 44 134q15 97 -3 139q-29 65 -102 65q-32 0 -66 -17t-59 -50q-30 -43 -47 -137z M186 530l179 162l125 -162l-15 -14l-121 108l-157 -108z" />
<glyph unicode="&#xf5;" d="M64 214q16 95 92 164.5t169 69.5q91 0 144.5 -69t37.5 -165q-16 -94 -92 -159.5t-168 -65.5q-89 0 -144 65t-39 160zM148 222q-16 -97 2 -141q28 -67 102 -67q37 0 71.5 20t57.5 54q29 44 44 134q15 97 -3 139q-29 65 -102 65q-32 0 -66 -17t-59 -50q-30 -43 -47 -137z M180 573q51 48 73 63t48 15q22 0 58 -23q37 -25 61 -25q20 0 42.5 12t35.5 24l12 12l13 -15q-51 -48 -73 -63t-48 -15q-24 0 -58 23q-38 25 -61 25q-20 0 -42.5 -12t-34.5 -24l-13 -12z" />
<glyph unicode="&#xf6;" d="M64 214q16 95 92 164.5t169 69.5q91 0 144.5 -69t37.5 -165q-16 -94 -92 -159.5t-168 -65.5q-89 0 -144 65t-39 160zM148 222q-16 -97 2 -141q28 -67 102 -67q37 0 71.5 20t57.5 54q29 44 44 134q15 97 -3 139q-29 65 -102 65q-32 0 -66 -17t-59 -50q-30 -43 -47 -137z M214 605q3 18 19 32.5t38 14.5q20 0 31.5 -14.5t8.5 -32.5q-3 -19 -19 -33.5t-38 -14.5q-20 0 -31.5 14.5t-8.5 33.5zM392 605q3 18 19 32.5t38 14.5q20 0 31.5 -14.5t8.5 -32.5q-3 -19 -19 -33.5t-38 -14.5q-20 0 -31.5 14.5t-8.5 33.5z" />
<glyph unicode="&#xf7;" horiz-adv-x="778" d="M98 250q3 20 36 20h599q10 0 15.5 -0.5t10.5 -5.5t4 -14q-4 -20 -38 -20h-597q-10 0 -16 0.5t-11 5.5t-3 14zM352 93q3 22 21 37.5t40 15.5t35 -15.5t10 -37.5q-4 -22 -22 -37.5t-40 -15.5t-35 15.5t-9 37.5zM404 407q4 22 22 37.5t40 15.5t35 -15.5t9 -37.5t-22 -37.5 t-40 -15.5t-35 15.5t-9 37.5z" />
<glyph unicode="&#xf8;" d="M45 -90q18 22 49.5 65t39.5 53q-38 30 -55.5 78.5t-7.5 106.5q16 97 90.5 166t163.5 69q57 0 99 -30l85 116l17 -12l-86 -116q31 -26 51 -76.5t9 -116.5q-16 -93 -90 -158.5t-163 -65.5q-53 0 -97 27l-88 -118zM140 214q-19 -106 16 -155l247 333q-32 34 -83 34 q-31 0 -66 -16.5t-61 -52.5q-37 -48 -53 -143zM170 42q31 -31 82 -31q76 0 127 64q35 44 52 139q19 111 -15 160z" />
<glyph unicode="&#xf9;" horiz-adv-x="556" d="M99 400l5 31l149 11l-56 -332q-3 -27 -3.5 -49t18 -36t57.5 -14q54 0 95 44t52 111l29 178q7 37 -4.5 46.5t-63.5 9.5l5 31l149 11l-59 -355q-7 -37 4.5 -46.5t63.5 -9.5l-5 -31l-146 -11l15 90q-57 -90 -144 -90q-44 0 -72.5 11t-41 25t-16 41t-1.5 43.5t7 48.5l25 150 q12 67 4 79.5t-66 12.5zM264 662q2 14 15 25t27 11q20 0 28 -17l94 -153l-20 -18l-132 122q-15 15 -12 30z" />
<glyph unicode="&#xfa;" horiz-adv-x="556" d="M99 400l5 31l149 11l-56 -332q-3 -27 -3.5 -49t18 -36t57.5 -14q54 0 95 44t52 111l29 178q7 37 -4.5 46.5t-63.5 9.5l5 31l149 11l-59 -355q-7 -37 4.5 -46.5t63.5 -9.5l-5 -31l-146 -11l15 90q-57 -90 -144 -90q-44 0 -72.5 11t-41 25t-16 41t-1.5 43.5t7 48.5l25 150 q12 67 4 79.5t-66 12.5zM304 528l146 153q14 17 32 17q14 0 23 -11t7 -25q-3 -18 -22 -30l-172 -122z" />
<glyph unicode="&#xfb;" horiz-adv-x="556" d="M99 400l5 31l149 11l-56 -332q-3 -27 -3.5 -49t18 -36t57.5 -14q54 0 95 44t52 111l29 178q7 37 -4.5 46.5t-63.5 9.5l5 31l149 11l-59 -355q-7 -37 4.5 -46.5t63.5 -9.5l-5 -31l-146 -11l15 90q-57 -90 -144 -90q-44 0 -72.5 11t-41 25t-16 41t-1.5 43.5t7 48.5l25 150 q12 67 4 79.5t-66 12.5zM214 530l179 162l125 -162l-15 -14l-121 108l-157 -108z" />
<glyph unicode="&#xfc;" horiz-adv-x="556" d="M99 400l5 31l149 11l-56 -332q-3 -27 -3.5 -49t18 -36t57.5 -14q54 0 95 44t52 111l29 178q7 37 -4.5 46.5t-63.5 9.5l5 31l149 11l-59 -355q-7 -37 4.5 -46.5t63.5 -9.5l-5 -31l-146 -11l15 90q-57 -90 -144 -90q-44 0 -72.5 11t-41 25t-16 41t-1.5 43.5t7 48.5l25 150 q12 67 4 79.5t-66 12.5zM242 605q3 18 19 32.5t38 14.5q20 0 31.5 -14.5t8.5 -32.5q-3 -19 -19 -33.5t-38 -14.5q-20 0 -31.5 14.5t-8.5 33.5zM420 605q3 18 19 32.5t38 14.5q20 0 31.5 -14.5t8.5 -32.5q-3 -19 -19 -33.5t-38 -14.5q-20 0 -31.5 14.5t-8.5 33.5z" />
<glyph unicode="&#xfd;" horiz-adv-x="528" d="M-2 -124q3 21 17.5 32t31.5 11q18 0 28.5 -11.5t6.5 -30.5q-5 -37 -46 -42q16 -18 44 -18q23 0 43 10.5t37.5 32t28.5 38t26 43.5l35 59l-89 365q-6 24 -20 29.5t-55 5.5l5 31q45 -3 96 -3l110 3l-5 -31q-56 0 -61 -26q0 -3 3 -18l67 -269l142 246q15 22 8.5 44t-38.5 23 l5 31l86 -3q42 0 76 3l-5 -31q-66 0 -104 -64l-247 -427q-68 -114 -147 -114q-38 0 -61 23.5t-18 57.5zM290 528l146 153q14 17 32 17q14 0 23 -11t7 -25q-3 -18 -22 -30l-172 -122z" />
<glyph unicode="&#xfe;" horiz-adv-x="556" d="M-4 -194l5 31q53 0 66.5 6.5t18.5 38.5l119 714q7 37 -4.5 46.5t-63.5 9.5l5 31l146 11l-53 -318q69 66 151 66q85 0 136 -66t35 -160q-16 -95 -93 -161t-168 -66q-50 0 -79.5 25.5t-31.5 44.5q-6 -34 -16.5 -97t-13.5 -80q-5 -32 6.5 -38.5t64.5 -6.5l-5 -31l-113 3z M194 114q-2 -13 -1 -20t8 -22q30 -61 95 -61q68 0 124 64q39 49 54 142q16 94 -6 139q-29 64 -94 64q-73 0 -129 -64q-13 -16 -17 -36z" />
<glyph unicode="&#xff;" horiz-adv-x="528" d="M-2 -124q3 21 17.5 32t31.5 11q18 0 28.5 -11.5t6.5 -30.5q-5 -37 -46 -42q16 -18 44 -18q23 0 43 10.5t37.5 32t28.5 38t26 43.5l35 59l-89 365q-6 24 -20 29.5t-55 5.5l5 31q45 -3 96 -3l110 3l-5 -31q-56 0 -61 -26q0 -3 3 -18l67 -269l142 246q15 22 8.5 44t-38.5 23 l5 31l86 -3q42 0 76 3l-5 -31q-66 0 -104 -64l-247 -427q-68 -114 -147 -114q-38 0 -61 23.5t-18 57.5zM228 605q3 18 19 32.5t38 14.5q20 0 31.5 -14.5t8.5 -32.5q-3 -19 -19 -33.5t-38 -14.5q-20 0 -31.5 14.5t-8.5 33.5zM406 605q3 18 19 32.5t38 14.5q20 0 31.5 -14.5 t8.5 -32.5q-3 -19 -19 -33.5t-38 -14.5q-20 0 -31.5 14.5t-8.5 33.5z" />
<glyph unicode="&#x152;" horiz-adv-x="1014" d="M127 339q26 155 142.5 260.5t248.5 105.5q28 0 68 -10q53 -12 84 -12h373l-10 -225h-25q3 56 0 88t-17.5 58.5t-46 37t-84.5 10.5h-112q-34 0 -42.5 -7t-13.5 -33l-40 -242h108q72 0 97 24.5t36 92.5h25l-44 -265h-25q11 68 -5.5 92.5t-88.5 24.5h-108l-45 -268 q-5 -26 1.5 -33t40.5 -7h110q42 0 74 5.5t56 21t39.5 30t31 46.5t24 55t24.5 69h25l-85 -258h-387q-29 0 -79 -11q-52 -11 -81 -11q-132 0 -213.5 104t-55.5 257zM229 354q-25 -148 26.5 -251t148.5 -103q58 0 83.5 26t40.5 83q12 45 43.5 232.5t33.5 236.5q4 52 -11.5 78.5 t-75.5 26.5q-96 0 -180.5 -94.5t-108.5 -234.5z" />
<glyph unicode="&#x153;" horiz-adv-x="778" d="M65 219q16 96 90 162.5t161 66.5q55 0 96 -28t62 -73q37 49 85.5 75t97.5 26q79 0 114 -55t20 -141q-2 -15 -6.5 -18t-21.5 -3h-273q-6 -35 -6 -64.5t4 -50.5t12 -37.5t17 -27t21 -18.5t21 -11.5t19 -5.5t14 -2h8q44 0 82.5 28.5t57.5 68.5q4 9 6 12.5t4.5 5.5t7.5 2 q13 0 11 -12q-1 -9 -13.5 -28.5t-33.5 -43t-56 -41t-74 -17.5q-50 0 -93.5 26t-65.5 78q-35 -45 -86 -74.5t-108 -29.5q-87 0 -138.5 66.5t-35.5 163.5zM142 223q-6 -51 -6 -86.5t12.5 -59t23.5 -37t28 -20t26.5 -8t17.5 -1.5q17 0 37.5 7t49 26.5t53 65.5t35.5 113 q4 37 5.5 65t-5.5 49t-14.5 36t-19.5 25t-21.5 15.5t-21.5 8.5t-18 3.5t-11 0.5q-12 0 -25 -2t-36.5 -14t-43 -32t-38.5 -60.5t-28 -94.5zM494 252h231q22 174 -73 174q-16 0 -35.5 -7t-43.5 -24.5t-45.5 -54.5t-33.5 -88z" />
<glyph unicode="&#x178;" horiz-adv-x="750" d="M120 652l5 31l129 -3q112 0 149 3l-5 -31q-37 0 -54.5 -5t-19.5 -20q-2 -8 4 -17l132 -295l209 268q12 15 15 30t-9 27t-41 12l5 31l114 -3q53 0 99 3l-5 -31q-89 0 -139 -65l-245 -314l-33 -193q-5 -31 6 -40t66 -9h23l-5 -31q-35 3 -145 3t-147 -3l5 31h24q54 0 68 9 t19 38l33 195l-153 342q-10 22 -24.5 29.5t-61.5 7.5h-18zM353 784q2 18 18 32.5t38 14.5q20 0 32 -14.5t9 -32.5q-3 -19 -19 -33.5t-38 -14.5q-20 0 -32 14.5t-8 33.5zM563 784q2 18 18 32.5t38 14.5q20 0 32 -14.5t9 -32.5q-3 -19 -19 -33.5t-38 -14.5q-20 0 -32 14.5 t-8 33.5z" />
<glyph unicode="&#x2c6;" d="M186 530l179 162l125 -162l-15 -14l-121 108l-157 -108z" />
<glyph unicode="&#x2dc;" d="M180 573q51 48 73 63t48 15q22 0 58 -23q37 -25 61 -25q20 0 42.5 12t35.5 24l12 12l13 -15q-51 -48 -73 -63t-48 -15q-24 0 -58 23q-38 25 -61 25q-20 0 -42.5 -12t-34.5 -24l-13 -12z" />
<glyph unicode="&#x2000;" horiz-adv-x="454" />
<glyph unicode="&#x2001;" horiz-adv-x="909" />
<glyph unicode="&#x2002;" horiz-adv-x="454" />
<glyph unicode="&#x2003;" horiz-adv-x="909" />
<glyph unicode="&#x2004;" horiz-adv-x="303" />
<glyph unicode="&#x2005;" horiz-adv-x="227" />
<glyph unicode="&#x2006;" horiz-adv-x="151" />
<glyph unicode="&#x2007;" horiz-adv-x="151" />
<glyph unicode="&#x2008;" horiz-adv-x="113" />
<glyph unicode="&#x2009;" horiz-adv-x="181" />
<glyph unicode="&#x200a;" horiz-adv-x="50" />
<glyph unicode="&#x2010;" horiz-adv-x="333" d="M42 187l10 58h265l-10 -58h-265z" />
<glyph unicode="&#x2011;" horiz-adv-x="333" d="M42 187l10 58h265l-10 -58h-265z" />
<glyph unicode="&#x2012;" horiz-adv-x="333" d="M42 187l10 58h265l-10 -58h-265z" />
<glyph unicode="&#x2013;" d="M43 255l3 22h499l-3 -22h-499z" />
<glyph unicode="&#x2014;" horiz-adv-x="1000" d="M43 255l3 22h999l-3 -22h-999z" />
<glyph unicode="&#x2018;" horiz-adv-x="278" d="M155 499q9 53 39 101t55 70.5t33 22.5q10 0 8 -11q-2 -6 -15 -17q-80 -68 -98 -166l-1 -18q25 19 46 19q25 0 36.5 -16t8.5 -37q-4 -21 -20.5 -37t-41.5 -16q-31 0 -44.5 29.5t-5.5 75.5z" />
<glyph unicode="&#x2019;" horiz-adv-x="278" d="M170 406q0 4 15 17q82 70 97 166l1 18q-19 -19 -46 -19q-25 0 -36 15.5t-8 37.5q3 21 20 37t42 16q31 0 44 -29.5t5 -75.5q-9 -53 -38.5 -101t-54.5 -70.5t-33 -22.5q-10 0 -8 11z" />
<glyph unicode="&#x201a;" horiz-adv-x="278" d="M64 -184q2 6 15 17q80 68 98 166l1 18q-25 -19 -46 -19q-25 0 -36.5 16t-7.5 37q3 21 19.5 37t41.5 16q31 0 44.5 -29.5t5.5 -75.5q-9 -53 -39 -101t-55 -70.5t-33 -22.5q-10 0 -8 11z" />
<glyph unicode="&#x201c;" horiz-adv-x="472" d="M155 499q9 53 39 101t55 70.5t33 22.5q10 0 8 -11q-2 -6 -15 -17q-80 -68 -98 -166l-1 -18q25 19 46 19q25 0 36.5 -16t8.5 -37q-4 -21 -20.5 -37t-41.5 -16q-31 0 -44.5 29.5t-5.5 75.5zM349 499q9 53 39 101t55 70.5t33 22.5q10 0 8 -11q-2 -6 -15 -17 q-80 -68 -98 -166l-1 -18q25 19 46 19q25 0 36.5 -16t8.5 -37q-4 -21 -20.5 -37t-41.5 -16q-31 0 -44.5 29.5t-5.5 75.5z" />
<glyph unicode="&#x201d;" horiz-adv-x="472" d="M170 406q0 4 15 17q82 70 97 166l1 18q-19 -19 -46 -19q-25 0 -36 15.5t-8 37.5q3 21 20 37t42 16q31 0 44 -29.5t5 -75.5q-9 -53 -38.5 -101t-54.5 -70.5t-33 -22.5q-10 0 -8 11zM364 406q0 4 15 17q82 70 97 166l1 18q-19 -19 -46 -19q-25 0 -36 15.5t-8 37.5 q3 21 20 37t42 16q31 0 44 -29.5t5 -75.5q-9 -53 -38.5 -101t-54.5 -70.5t-33 -22.5q-10 0 -8 11z" />
<glyph unicode="&#x201e;" horiz-adv-x="472" d="M71 -184q2 6 15 17q80 68 98 166l1 18q-25 -19 -46 -19q-25 0 -36.5 16t-7.5 37q3 21 19.5 37t41.5 16q31 0 44.5 -29.5t5.5 -75.5q-9 -53 -39 -101t-55 -70.5t-33 -22.5q-10 0 -8 11zM265 -184q2 6 15 17q80 68 98 166l1 18q-25 -19 -46 -19q-25 0 -36.5 16t-7.5 37 q3 21 19.5 37t41.5 16q31 0 44.5 -29.5t5.5 -75.5q-9 -53 -39 -101t-55 -70.5t-33 -22.5q-10 0 -8 11z" />
<glyph unicode="&#x2022;" horiz-adv-x="778" d="M284 231q10 59 59.5 101.5t108.5 42.5t94.5 -42.5t25.5 -101.5q-11 -59 -60 -101.5t-108 -42.5t-94.5 42.5t-25.5 101.5z" />
<glyph unicode="&#x2026;" horiz-adv-x="670" d="M95 53q4 22 22 37.5t40 15.5t35 -15.5t9 -37.5t-22 -37.5t-40 -15.5t-35 15.5t-9 37.5zM291 53q4 22 22 37.5t40 15.5t35 -15.5t9 -37.5t-22 -37.5t-40 -15.5t-35 15.5t-9 37.5zM487 53q4 22 22 37.5t40 15.5t35 -15.5t9 -37.5t-22 -37.5t-40 -15.5t-35 15.5t-9 37.5z " />
<glyph unicode="&#x202f;" horiz-adv-x="181" />
<glyph unicode="&#x2039;" horiz-adv-x="389" d="M151 242q3 6 4 7q112 96 180 228q3 6 11 6h2q5 0 7 -4t0 -8q-47 -120 -132 -229q48 -107 56 -230q0 -4 -3.5 -8t-8.5 -4h-2q-8 0 -8 7q-25 131 -104 228q-2 2 -2 7z" />
<glyph unicode="&#x203a;" horiz-adv-x="389" d="M114 12q48 122 132 230q-49 108 -56 229q0 5 4 8.5t8 3.5h2q8 0 8 -6q25 -132 104 -228q2 -2 2 -7q-2 -6 -4 -7q-112 -97 -180 -228q-4 -7 -10 -7h-2q-5 0 -7.5 4t-0.5 8z" />
<glyph unicode="&#x205f;" horiz-adv-x="227" />
<glyph unicode="&#x20ac;" horiz-adv-x="627" d="M102 283l5 10q3 8 11 8h46q3 45 14 82h-50q-5 0 -7 4t0 8l4 10q3 8 11 8h50q35 107 109 185q102 107 222 107q65 0 105 -45l46 42q3 3 8 3h3q10 0 8 -10l-26 -155q-2 -10 -12 -10h-10q-8 0 -8 9q3 57 -27 96.5t-82 39.5q-89 0 -163 -94q-50 -67 -74 -168h291q5 0 7 -4.5 t0 -8.5l-4 -10q-3 -7 -11 -7h-290l-7 -41l-6 -41h260q5 0 7 -4.5t0 -8.5l-4 -10q-4 -7 -11 -7h-256q-9 -104 19 -168q18 -43 52 -69t79 -26q52 0 95.5 40t58.5 96q2 9 12 9h10q10 0 8 -10l-26 -155q-2 -10 -12 -10h-3q-4 0 -7 3l-31 42q-55 -45 -120 -45q-59 0 -107.5 29 t-78.5 78q-48 76 -48 186h-52q-5 0 -7.5 3.5t-0.5 8.5z" />
<glyph unicode="&#x2122;" horiz-adv-x="983" d="M113 548l34 135h367l-12 -135h-15q7 75 -7.5 96t-80.5 21q-28 0 -34 -1q-12 -3 -15 -23l-53 -316q-3 -18 5.5 -23.5t52.5 -5.5h24l-3 -19q-24 2 -113 2t-114 -2l3 19h24q31 0 45 3.5t17.5 8.5t5.5 17l53 316q1 9 1 12t-2 6.5t-8 4.5t-32 1q-66 0 -87.5 -20.5t-40.5 -96.5 h-15zM479 277l3 19q28 0 44.5 8.5t20 16t5.5 19.5l50 300q2 18 -4 23t-39 5h-15l4 19h102h8t4.5 -1.5t3.5 -4t2 -7.5l74 -336l188 338q4 8 7 9.5t15 1.5h101l-4 -19h-14q-33 0 -41 -5t-10 -23l-53 -316q-3 -18 3 -23t39 -5h14l-3 -19q-21 2 -84 2q-65 0 -88 -2l3 19h15 q33 0 41 5t11 23l57 344h-1l-210 -379q-7 -12 -13 -12t-10 13l-82 374l-54 -324q0 -9 -1 -18.5t13 -17.5t42 -8l-3 -19l-70 2z" />
<glyph unicode="&#xe000;" horiz-adv-x="430" d="M0 0v430h430v-430h-430z" />
</font>
</defs>
</svg>
